<?xml version="1.0" standalone="no"?>
<!DOCTYPE svg PUBLIC "-//W3C//DTD SVG 1.1//EN" "http://www.w3.org/Graphics/SVG/1.1/DTD/svg11.dtd" >
<svg xmlns="http://www.w3.org/2000/svg">
<metadata>
<json>
<![CDATA[
{
	"fontFamily": "Connections-Brandicons",
	"majorVersion": 1,
	"minorVersion": 0,
	"version": "Version 1.0",
	"fontId": "Connections-Brandicons",
	"psName": "Connections-Brandicons",
	"subFamily": "Regular",
	"fullName": "Connections-Brandicons",
	"description": "Font generated by IcoMoon."
}
]]>
</json>
</metadata>
<defs>
<font id="Connections-Brandicons" horiz-adv-x="1024">
<font-face units-per-em="1024" ascent="960" descent="-64" />
<missing-glyph horiz-adv-x="1024" />
<glyph unicode="&#x20;" horiz-adv-x="512" d="" />
<glyph unicode="&#xe900;" glyph-name="plangrid" data-tags="plangrid" d="M708.267 960c110.933 0 181.845-0.384 248.661-67.157 66.645-66.859 67.072-137.387 67.072-248.619v-392.533c0-110.933-0.427-181.803-67.157-248.661-66.859-66.645-137.344-67.029-248.661-67.029h-392.533c-110.891 0-181.76 0.384-248.619 67.157-66.603 66.773-67.029 137.344-67.029 248.619v392.533c0 110.891 0.427 181.803 67.157 248.619 66.859 66.645 137.344 67.072 248.576 67.072h392.533zM895.915 484.224c-18.261 195.115-184.064 347.691-383.915 347.691-212.096 0-384-171.819-384-383.915 0-204.843 160.085-372.651 362.027-384h304.469c56.021 0.128 101.333 45.483 101.504 101.589v318.72l-0.085-0.085zM798.421 117.76c-24.064 0-43.648 19.627-43.648 43.691 0 24.149 19.584 43.691 43.648 43.691 24.149 0 43.733-19.541 43.733-43.691 0-24.064-19.584-43.691-43.733-43.691zM512 151.509c-163.712 0.171-296.32 132.821-296.491 296.491 0.171 163.669 132.779 296.32 296.491 296.491 163.669-0.171 296.32-132.821 296.491-296.491-0.171-163.669-132.821-296.32-296.491-296.491z" />
<glyph unicode="&#xe901;" glyph-name="bootstrap" data-tags="bootstrap" d="M853.333 960h-682.667c-94.165-0.256-170.411-76.501-170.667-170.667v-682.667c0-93.867 76.8-170.667 170.667-170.667h682.667c93.867 0 170.667 76.8 170.667 170.667v682.667c0 93.867-76.8 170.667-170.667 170.667zM760.021 240.853c-8.533-20.565-22.059-38.699-39.381-52.651-17.92-14.507-40.619-26.453-68.565-34.987-27.904-8.661-61.099-13.013-99.541-13.013h-274.432v597.333h290.219c53.675 0 96.683-12.075 128.853-36.693 32.427-24.747 48.555-61.611 48.555-111.36 0-30.080-7.339-55.893-22.101-77.227-14.677-21.205-35.84-37.803-63.147-49.323v-1.963c36.437-7.68 64.64-24.96 83.2-51.84s28.075-60.843 28.075-101.845c0-22.955-4.437-44.8-12.8-65.195l1.067-1.152zM641.579 388.053c-17.493 16-42.069 23.808-73.813 23.808h-184.405v-186.368h184.917c31.573 0 56.32 8.192 73.813 24.747 17.493 16.427 26.453 39.851 26.453 69.973-0.299 29.44-8.96 52.224-26.453 67.84h-0.725zM615.979 508.501c16.896 14.336 25.173 34.859 25.173 61.611 0 30.037-7.467 51.371-22.613 63.573-15.019 12.16-36.693 18.475-65.195 18.475h-170.667v-164.821h170.667c24.875 0 46.080 7.253 62.464 21.163z" />
<glyph unicode="&#xe902;" glyph-name="medium" data-tags="medium" d="M0 960v-1024h1024v1024h-1024zM850.688 717.397l-54.912-52.651c-3.862-2.96-6.327-7.575-6.327-12.766 0-0.947 0.082-1.874 0.239-2.775l-0.014 0.096v-386.859c-0.139-0.794-0.219-1.709-0.219-2.642 0-5.188 2.462-9.8 6.282-12.733l0.038-0.028 53.632-52.651v-11.563h-269.739v11.52l55.552 53.973c5.461 5.461 5.461 7.040 5.461 15.36v312.747l-154.453-392.32h-20.907l-179.883 392.32v-262.955c-0.21-1.465-0.329-3.157-0.329-4.877 0-9.839 3.918-18.762 10.279-25.296l-0.008 0.008 72.277-87.637v-11.563h-204.885v11.52l72.32 87.68c6.063 6.283 9.799 14.847 9.799 24.283 0 2.078-0.181 4.114-0.529 6.092l0.031-0.21v304.043c0.088 0.812 0.138 1.755 0.138 2.708 0 7.838-3.387 14.884-8.776 19.756l-0.023 0.021-64.256 77.397v11.52h199.424l154.155-338.048 135.509 338.091h190.123v-11.563z" />
<glyph unicode="&#xe903;" glyph-name="origin" data-tags="origin" d="M537.088 827.307c50.731-3.029 100.352-16.384 145.792-39.211 43.989-21.931 83.2-52.267 115.456-89.344 32.043-36.907 56.405-79.061 73.173-126.421 16.683-47.317 23.381-97.195 19.797-149.419-1.408-27.136-5.76-53.419-13.056-78.848-7.125-25.088-16.768-49.451-28.757-72.661-18.731-36.224-39.637-70.485-62.72-102.912-22.955-32.384-48-62.507-75.179-90.368-27.221-27.861-56.021-53.504-86.699-76.885-30.677-23.211-62.763-44.288-96.171-63.104l-1.579-1.109c-1.408-0.768-3.029-1.109-4.651-0.981-2.688 0.64-5.035 2.048-6.784 4.139-1.749 2.133-2.688 4.736-2.645 7.381 0 1.237 0.171 2.517 0.512 3.627 0.341 0.981 0.896 1.877 1.579 2.645 11.819 16.768 21.589 34.389 29.269 52.693 7.723 18.517 12.928 37.76 15.701 57.984 0 1.365-0.64 2.731-1.621 3.627-0.896 1.067-2.261 1.621-3.627 1.621-11.264-1.365-22.528-2.261-33.92-2.645-11.349-0.384-22.699 0.128-33.963 1.579-50.731 3.029-100.395 16.427-145.835 39.168-43.989 21.973-83.157 52.309-115.413 89.387-32.171 37.12-57.003 80-73.173 126.421-16.811 47.915-23.552 98.731-19.84 149.419 1.408 27.136 5.76 53.419 13.056 78.848 7.296 25.515 16.896 49.28 28.8 71.68 18.731 36.864 39.723 71.509 62.677 103.936 22.997 32.299 48 62.464 75.136 90.368 27.264 27.819 56.064 53.419 86.741 76.8 30.72 23.296 62.72 44.331 96.128 63.104l1.621 1.067c1.408 0.853 2.987 1.152 4.651 1.067 2.773-0.683 5.077-2.176 6.741-4.181 1.835-2.176 2.645-4.523 2.645-7.424 0.043-1.152-0.128-2.432-0.512-3.584-0.299-0.981-0.853-1.835-1.536-2.603-11.648-16.469-21.547-34.176-29.312-52.779-7.723-18.475-12.8-37.76-15.616-57.941 0-1.408 0.512-2.688 1.536-3.669 0.939-1.024 2.304-1.579 3.627-1.579 11.179 1.408 22.485 2.261 33.92 2.603 11.605 0.384 22.869-0.128 34.048-1.493zM502.656 299.648c39.339-3.371 78.421 9.856 107.563 36.48 30.72 27.264 47.317 61.355 50.176 102.4 3.328 39.595-9.899 78.763-36.523 108.16-25.643 30.208-62.805 48.256-102.4 49.579-39.552 3.328-78.72-9.899-108.117-36.48-30.251-25.685-48.299-62.848-49.664-102.4-3.328-39.509 9.728-78.592 36.096-108.16 26.795-30.933 61.099-47.573 102.869-49.579z" />
<glyph unicode="&#xe904;" glyph-name="rollup-dot-js" data-tags="rollup-dot-js" d="M145.92 960c-8.7-0.024-15.744-7.083-15.744-15.787 0 0 0 0 0 0v0-832.683c24.619 63.488 66.432 154.325 133.888 278.613 243.2 447.147 275.072 492.245 401.749 492.245 66.56 0 133.717-30.037 177.152-83.413-60.015 95.915-164.394 159.21-283.682 161.021l-0.265 0.003zM688.64 851.456c-50.773-0.427-96.299-19.883-115.115-63.915-41.259-96.256 69.291-203.392 117.632-194.901 61.525 10.88-10.88 152.021-10.88 152.021 94.080-177.323 72.405-123.051-97.707-285.867s-343.808-506.581-369.152-521.003c-0.98-0.664-2.102-1.278-3.281-1.784l-0.133-0.051h667.179c8.706 0.109 15.722 7.192 15.722 15.914 0 2.564-0.607 4.987-1.684 7.133l0.042-0.092-174.421 345.259c-1.084 2.084-1.72 4.551-1.72 7.166 0 5.801 3.129 10.871 7.79 13.615l0.074 0.040c102.831 59.673 170.88 169.259 170.88 294.739 0 0.076 0 0.152 0 0.228v-0.012c0 60.8-15.915 117.803-43.947 167.253-39.552 40.619-103.68 64.683-161.237 64.256z" />
<glyph unicode="&#xe905;" glyph-name="statamic" data-tags="statamic" d="M133.504 194.517c-1.28 9.088-0.896 30.421-0.896 30.421h-12.288c-28.245 0-39.339 11.392-39.339 39.68v112.427c0 50.773-11.861 63.189-35.627 70.997v2.603c23.765 7.808 35.627 20.736 35.627 71.509v111.957c0 28.288 11.093 37.12 39.253 37.12h12.16s0.597 19.499 1.92 30.891c-5.76 0.768-28.16 1.28-28.16 1.28-56.917 0-72.917-27.563-72.917-84.437v-102.016c0-41.728-24.277-47.317-33.237-47.317v-40.533c8.96 0 32.64-5.632 32.64-46.677v-102.656c0-56.917 15.957-83.797 72.917-83.797 0 0 22.357-1.963 26.88-1.963l1.067 0.512zM98.901 422.827c20.821 0 50.517-7.168 50.517-59.648v-130.688c0-72.448 17.408-108.757 89.899-108.757h32.64v38.741h-16.64c-35.84 0-49.237 14.891-49.237 50.731v143.317c0 64.64-20.437 80.427-56.277 90.453v2.901c35.84 10.069 56.96 26.581 56.96 91.221v143.019c0 35.797 13.397 46.507 49.237 46.507h16.597v41.557h-32c-72.235 0-89.515-35.157-89.515-107.435v-130.475c0-53.077-29.397-60.8-50.56-60.8v-51.115l-1.621 0.469zM589.013 256.512c19.797 5.589 36.437 13.611 50.176 24.107 13.653 10.453 24.32 23.381 32 38.485 7.509 15.147 11.349 31.957 11.349 50.56 0 16.171-2.816 30.080-8.448 41.557-5.632 11.563-14.72 21.589-27.136 30.379-12.501 8.789-28.373 16.683-47.701 23.509-19.285 6.827-42.624 13.653-70.059 20.437-29.397 7.467-49.749 14.080-61.184 19.84-11.563 5.973-17.28 15.445-17.28 28.672 0 15.104 6.016 26.197 18.048 32.939 11.947 7.083 26.752 10.24 44.416 10.24 18.987 0 38.101-2.56 57.173-8.96 19.029-5.717 39.339-15.957 60.843-29.397l40.32 60.8c-23.509 14.677-48.853 26.24-75.904 35.157-26.88 8.917-54.315 12.8-81.237 12.8-21.76 0-42.155-2.56-60.757-8.277-18.56-5.803-35.157-14.080-49.237-25.003-14.165-10.837-24.96-24.277-32.683-39.637-7.637-15.317-11.52-33.28-11.52-52.437 0-14.677 2.56-26.837 7.723-37.76 5.077-10.837 12.757-19.84 23.637-28.117s24.96-15.317 42.88-21.717c17.92-6.4 38.997-12.843 63.957-18.603 33.195-7.68 56.277-14.72 70.315-21.76 14.080-6.357 21.12-16.64 21.12-30.080 0-13.397-5.76-24.235-17.28-31.275s-28.117-10.88-48.597-10.88c-45.397 0-92.757 16-141.355 48l-41.6-69.077c11.563-7.723 24.32-14.763 39.040-21.12 14.72-6.4 30.037-11.563 46.037-16 16-4.48 32.64-7.723 49.92-10.24 17.237-2.56 33.237-3.157 48.597-3.157 24.277 0 46.080 3.157 65.877 8.917l-1.451-2.901zM907.349 671.232c28.16 0 36.395-8.832 36.395-37.12v-111.915c0-50.688 8.917-63.701 44.587-71.637v-2.219c-35.669-7.893-44.587-20.309-44.587-70.955v-112.768c0-28.117-8.192-39.637-36.395-39.637h-12.331s-0.128-21.291-1.323-30.293c4.949 0 24.533 0.64 24.533 0.64 56.96 0 70.101 27.605 70.101 84.523v102.315c0 41.173 23.893 46.72 35.712 46.72v40.875c-11.819 0-35.712 5.675-35.712 47.317v101.888c0 56.917-13.141 84.523-70.101 84.523 0 0-20.053-0.64-25.941-1.365 1.237-11.392 2.517-30.976 2.517-30.976h12.16l0.384 0.085zM872.277 232.576v130.688c0 52.437 29.739 59.605 50.56 59.605v51.627c-20.779 0-50.56 7.168-50.56 60.288v130.048c0 72.405-11.477 107.435-84.011 107.435h-34.987v-41.6h19.157c35.84 0 46.336-10.667 46.336-46.549v-142.891c0-64.597 17.877-81.067 53.717-91.136v-2.859c-35.84-10.027-53.077-25.813-53.077-90.411v-143.531c0-35.968-10.24-50.816-46.037-50.816h-19.157v-38.741h35.157c72.875 0 84.395 36.395 84.395 108.885h-1.493z" />
<glyph unicode="&#xe906;" glyph-name="codewars" data-tags="codewars" d="M32.427 439.467l-3.413 1.707c-7.68 4.267-13.653 10.667-17.92 18.773-5.973 11.093-8.533 21.333-8.533 32l0.853 5.547c0 8.533 2.133 16.213 5.973 23.467l3.413 6.4c1.707 3.413 4.267 6.4 6.4 9.387 2.56 2.987 2.987 6.827 2.133 10.24l-2.133 6.827c-2.56 8.533-4.267 17.067-4.267 25.6l-1.28 5.12c0 9.387 2.56 18.773 8.533 25.6l4.267 5.547c2.987 4.267 7.68 6.827 12.8 8.533 4.267 1.28 7.253 5.547 7.68 10.667l0.853 14.507c0 11.52 5.547 22.187 14.080 29.867l10.24 7.68c2.133 2.133 4.267 4.267 5.973 7.68 2.133 2.56 2.56 5.973 2.133 8.533-0.853 4.267 0 5.547 2.133 5.973 6.827-2.56 11.093-1.707 14.080 1.707l5.547 7.253 15.36 17.067c4.267 4.267 5.973 11.947 3.413 17.92l-5.12 11.093c-0.853 2.56 0 5.547 2.133 6.4 5.547 0 9.387-2.133 11.093-5.547l1.707-2.987c2.56-5.12 8.533-7.68 12.8-5.547 9.387 3.413 17.067 4.267 24.32 4.267h13.653c9.387 0 17.067 6.4 18.773 16.213 1.707 11.947 5.973 21.333 11.947 27.733 6.4 7.253 13.653 12.8 22.187 17.067 11.093 5.973 17.92 14.507 20.053 25.6 2.987 13.653 10.24 23.467 20.053 29.867l32.427 18.347 9.387 5.547c5.547 3.413 10.667 7.68 14.933 12.8l8.533 10.24c4.267 4.267 8.533 7.253 13.653 8.533 4.267 1.28 10.24 2.133 15.36 1.707l17.067-1.28c8.533 0 15.36-2.133 22.187-5.12l4.267-2.133c4.267-1.707 8.533-0.853 10.667 2.133l3.84 2.133 18.347 19.2c4.267 4.267 9.387 5.973 14.933 5.12s11.093-2.987 16.213-5.547c7.68-4.267 14.080-5.973 21.333-5.973h4.267c9.387 0 18.773-1.28 28.16-3.413l6.4-1.707c6.4-1.707 12.8 0.853 17.067 5.973 1.28 2.133 4.267 2.56 5.973 0.853 1.28-0.853 1.707-1.707 2.133-2.987 0.853-8.533 5.973-14.933 12.8-17.067l6.827-2.133c7.253-2.133 13.653-6.827 17.92-12.8 4.267-6.4 9.387-12.8 15.36-17.067l4.267-4.267c4.267-4.267 10.24-5.973 16.213-5.547h25.173c10.24 0 20.053-1.707 29.867-5.973 9.387-4.267 19.2-5.12 28.16-1.707 9.387 2.987 19.2 4.267 29.013 2.987l18.347-2.987c8.533-0.853 17.067-5.12 22.187-11.52l2.133-2.133c4.267-4.267 8.533-9.813 12.8-15.787 2.56-5.547 8.533-8.533 14.507-8.533h26.453c6.4 0 12.8-1.28 17.92-4.267 5.547-4.267 10.24-8.533 14.507-12.8l4.267-5.547c5.12-5.973 7.68-14.080 7.253-22.613 0-6.827 5.12-12.8 11.947-12.8l8.533-0.853c5.973 0 11.093-4.267 14.080-9.813l4.267-8.533 11.093-24.747c1.707-4.267 2.133-8.533 1.707-11.947 0-4.267 1.28-7.68 4.267-9.387l4.267-2.987c5.547-4.267 8.533-10.667 7.68-17.92l-2.987-20.053-0.853-8.533c-0.853-4.267 1.28-9.813 5.12-12.8 6.4-4.267 9.387-9.813 9.813-16.213v-8.533c0-4.267-0.853-9.387-4.267-12.8-2.56-3.413-4.267-7.68-4.267-12.8l1.28-9.813c0-6.827 4.267-12.8 8.533-17.067 5.973-4.267 9.387-11.093 10.24-17.92 1.707-10.667 2.133-19.2 2.133-27.733v-9.813c0-3.413 0-6.827 1.28-10.24 0.853-2.987 2.987-5.973 5.547-7.68l8.533-6.4c8.533-5.547 14.507-12.8 17.92-22.613 4.267-9.387 5.547-19.2 5.547-29.013v-3.413c0-7.68-0.853-15.787-3.413-23.040-2.133-7.68-1.707-14.933 1.28-21.333 3.413-5.973 5.547-12.8 6.4-20.053 1.707-8.533 0.853-17.067-2.133-23.893l-0.853-2.987c-2.133-5.12-5.547-9.813-9.813-13.653-4.267-4.267-8.533-6.827-11.093-9.813-2.56-2.56-4.267-6.827-2.987-10.667l1.28-5.973c2.133-8.533 2.133-17.067 0-24.747v-3.413c-1.707-6.4-4.267-11.947-6.827-17.067-2.987-5.547-7.253-9.813-12.8-12.8l-6.4-4.267c-2.987-1.707-5.12-5.547-5.12-9.387 0-4.267-1.707-8.533-4.267-11.093l-6.4-8.533c-4.267-5.547-9.813-10.24-15.787-12.8-5.973-4.267-11.093-8.533-14.933-12.8-4.267-5.12-7.68-11.093-9.387-17.067-1.707-7.68-7.68-11.947-14.080-11.947h-23.040c-5.973 0-11.52-4.267-14.080-9.387-2.987-6.827-5.973-11.52-9.813-15.787-4.267-4.267-6.827-9.387-8.533-15.36-0.853-5.12-5.12-8.533-9.387-6.827-5.547 2.56-11.093 0-13.653-4.267-5.12-8.533-10.24-14.933-15.787-20.48l-2.987-2.56c-5.547-4.267-12.8-7.68-19.2-7.68-7.68 0-11.52-3.413-12.8-8.533-1.28-4.267-2.133-9.813-2.56-14.507-0.853-5.12-2.56-9.813-4.267-14.080l-2.133-2.56c-4.267-6.4-7.68-12.8-11.947-18.347l-1.707-2.56c-5.547-7.253-12.8-12.8-21.333-14.933-10.24-3.413-19.2-4.267-28.16-4.267h-5.973c-4.267 0-8.533-2.56-11.52-6.827l-2.56-4.267-2.56-5.12-5.547-9.387c-4.267-7.68-10.667-12.8-19.2-15.36-8.533-2.133-18.347-2.987-27.307-2.56l-6.827 0.853c-5.973 0-11.52 1.707-17.067 4.267-4.267 1.707-10.24 0-12.8-4.267-4.267-5.973-9.387-9.387-14.933-11.093l-12.8-4.267c-8.533-2.133-17.92-2.133-26.88 0l-6.827 2.133c-4.267 0-8.533 2.133-11.947 4.267-4.267 2.133-8.533 2.987-12.8 2.56l-5.547-0.853c-8.533-0.853-16.213 0-23.893 2.133l-11.52 2.56c-5.12 1.707-9.813 5.12-12.8 9.813-2.133 4.267-6.827 7.68-12.8 8.533h-13.653c-8.533 1.28-16.213 4.267-21.333 10.667l-17.067 16.213-5.973 5.12-9.387 6.827-5.547 4.267c-6.4 4.267-14.080 7.68-22.187 8.533l-25.6 4.267c-2.56 0-4.267 0.853-6.827 1.28l-9.813 2.133c-4.267 0.853-8.533 4.267-11.52 8.533-2.56 4.267-7.253 5.973-11.52 4.267-8.533-3.413-15.36-4.267-22.187-5.547h-5.973c-11.093-0.853-21.333 0.853-31.573 5.547-10.24 4.267-17.067 10.667-23.467 18.773-5.12 7.253-12.8 12.8-22.187 14.507l-11.947 2.56c-8.533 1.707-17.067 5.12-24.747 10.24-8.533 5.973-12.8 11.52-16.213 18.347-3.413 6.4-5.547 13.653-5.973 21.333v3.413c-0.853 8.533-6.827 16.213-14.933 18.347-9.813 2.987-17.067 7.253-23.467 12.8-5.973 5.547-9.387 13.653-9.387 22.187l0.853 18.773c0 7.253-2.133 13.653-7.253 18.347-5.12 5.12-8.533 11.52-8.533 18.347l-1.28 15.36c-0.853 11.093-2.987 22.187-5.547 33.28-2.56 9.813 1.28 19.627 9.387 24.32l2.987 2.133c4.267 2.987 5.973 8.533 3.413 13.653l-3.413 4.267c-4.267 4.267-8.533 7.253-12.8 8.533-3.413 0.853-4.267 4.267-4.267 6.4l4.267 5.12c2.56 2.987 2.133 7.68 0 10.24-3.413 3.413-5.12 7.68-5.547 11.947l-0.853 29.867c0 5.973 0.853 11.947 2.56 17.92 1.707 5.12 0 11.093-5.12 13.653zM454.827 495.787c2.987 2.987 2.56 8.533 0 10.667-4.267 3.413-7.253 7.253-9.813 11.52l-4.267 6.827c-2.987 5.547-6.827 10.24-11.093 14.507l-0.853 0.853c-4.267 3.413-7.253 7.68-9.813 12.8-2.133 4.267-2.133 8.533 0 12.8l2.56 4.267c2.56 4.267 4.267 10.24 4.267 15.36v1.707c0 4.267-1.707 8.533-4.267 12.8-1.707 3.413-3.413 7.68-4.267 11.947v2.56c-1.28 5.12 0 10.667 3.413 14.933 3.413 5.547 5.973 10.667 7.253 17.067v0.853c1.707 4.267 0.853 9.813-1.707 14.080s-3.413 8.533-1.707 13.653l2.987 8.533c2.56 7.68 6.4 14.507 11.52 20.48l5.973 6.4 4.267 5.12 2.56 2.56c2.56 2.56 2.987 6.827 0.853 10.24-2.133 4.267-3.413 8.533-2.56 12.8l0.853 5.973c1.28 8.533 4.267 17.067 9.813 23.893l1.707 1.707c6.4 8.533 14.507 14.080 23.893 17.067l11.52 4.267c5.12 1.707 8.533 7.253 8.533 12.8 0 6.827 2.133 12.8 5.973 18.347l2.133 2.133c4.267 7.253 9.387 14.507 12.8 22.187l2.987 5.547c0.853 1.28 1.28 2.987 1.28 4.267 0 7.253-4.267 13.653-11.093 14.080l-18.773 1.28c-10.667 0.853-21.333 0-31.573 0l-36.267-4.267c-5.547 0-9.813-4.267-10.24-10.24 0-5.973-4.267-11.093-9.387-12.8l-15.36-4.267-4.267-1.28-12.8-4.267c-9.387-2.987-17.067-9.813-21.333-19.2l-3.413-5.547c-4.267-9.387-11.52-17.067-20.48-22.613-8.533-5.547-12.8-14.507-13.653-24.747v-4.267c-0.853-8.533-3.413-17.067-8.533-23.040l-2.133-3.413c-3.413-4.267-4.267-9.813-2.133-14.507 2.133-5.12 3.413-10.667 2.987-16.213v-22.613c0-5.973-4.267-11.093-8.533-12.8-5.973-2.133-9.813-6.827-11.52-12.8l-2.133-8.533c-1.707-8.533 1.28-17.067 8.533-22.187 6.827-5.12 11.093-12.8 12.8-22.187v-7.68c1.28-8.533 5.973-17.067 13.653-21.333 7.68-5.12 13.653-12.8 17.067-21.333l2.133-6.827c3.413-9.387 11.093-14.933 19.627-15.787h2.56c7.68 0 14.507-4.267 18.773-11.093s11.093-11.52 18.773-12.8l11.947-3.413c7.253-2.133 14.080-5.973 19.627-11.52l0.853-0.853c4.267-3.413 11.093-2.987 14.933 1.707l2.987 3.413zM503.467 535.040c4.267-2.56 8.533-1.28 10.24 2.56l1.28 2.133c2.987 5.973 6.827 11.947 11.093 17.067l8.533 12.8c1.28 0 1.707 0.853 2.133 1.707l10.24 13.653c4.267 4.267 9.387 7.253 15.36 7.253 5.547 0 10.24 2.987 12.8 8.533 1.707 5.973 4.267 11.52 9.387 16.213l2.133 2.56c4.267 4.267 8.533 6.4 12.8 8.533 5.547 0.853 10.667 1.707 15.787 1.707h12.8c5.12 0 9.387 2.133 11.947 6.4s6.4 7.253 10.667 9.387l4.267 1.707c6.827 2.987 14.507 5.12 22.187 5.973l8.533 0.853c5.12 0 10.667 0 15.787-2.987 4.267-2.987 9.813-2.56 14.080 0.853l2.987 1.707c6.4 4.267 13.653 7.68 21.333 8.533h0.853c8.533 1.707 16.213 1.707 24.747 1.28h4.267c8.533-1.28 15.787-4.267 21.333-10.667l1.28-1.707c4.267-4.267 11.093-7.68 17.067-7.68h7.253c2.133 0 4.267 0.853 5.547 2.987 1.28 1.28 3.413 2.56 5.547 2.56h4.267c5.973 0 11.52-1.707 17.067-3.413l7.253-2.987c6.827-2.133 14.080-4.267 21.333-5.12h5.12c3.413 0 5.547 2.133 5.547 5.12 0 4.267-0.853 8.533-2.987 11.947l-2.987 6.827c-3.413 5.547-5.973 11.52-8.533 17.067l-0.853 2.133c-2.133 4.267-2.133 8.533 0 12.8v2.133c0.853 3.413-0.853 7.253-4.267 8.533h-3.413c-6.827 2.133-12.8 5.973-17.067 11.52l-4.267 4.267c-4.267 4.267-6.827 10.667-8.533 17.067-2.133 5.547-6.827 9.813-12.8 9.813h-17.92c-6.4 0.853-11.947 4.267-15.787 9.387l-1.707 2.133c-2.987 4.267-5.547 9.387-7.253 14.507-2.133 4.267-6.827 6.827-11.093 5.547l-5.12-1.707c-8.533-2.987-17.067-4.267-25.6-3.413l-6.827 0.853c-7.253 0-14.080 2.987-19.627 7.253l-4.267 2.987c-3.413 2.56-6.827 4.267-10.667 5.973-4.267 1.707-7.68 0.853-10.24-2.133l-2.133-2.56c-4.267-4.267-10.24-7.68-16.213-8.533l-23.040-1.28c-4.267 0-8.533-2.133-11.52-5.12-3.413-2.987-7.253-5.12-11.52-5.973h-0.853c-4.267 0-8.533-2.987-12.8-5.973v-0.853c-4.267-4.267-9.813-6.4-15.36-6.4l-1.707-0.853c-5.12 0-10.24 0-15.36-1.28h-5.12c-7.253-1.28-12.8-7.253-14.507-14.933l-1.707-9.813c-1.28-6.827-4.267-12.8-8.533-18.347-4.267-5.12-9.387-8.533-15.787-8.533h-7.253c-4.267-0.853-8.533-5.547-7.68-10.667 0.853-7.253 0-13.653-1.28-20.053l-1.707-7.253c-1.707-6.4-5.973-11.52-11.52-13.653l-2.56-1.28h-0.853c-2.56-1.707-4.267-5.547-2.133-8.533 2.56-4.267 3.413-8.533 2.987-12.8l-1.28-13.653c0-5.12-2.133-9.813-4.267-14.080-2.56-4.267-2.56-8.533-0.853-12.8l4.267-9.387c2.133-4.267 2.56-8.533 1.28-13.653-1.28-4.267-2.133-8.533-1.707-12.8 0-4.267 2.56-8.533 5.973-10.24l0.853-0.853zM840.533 226.56c4.267-4.267 10.667-5.973 15.787-2.56l8.533 5.547c4.267 2.987 7.68 7.253 9.387 12.8v0.853l4.267 12.8 2.56 4.267 1.707 4.267 1.707 2.987c1.707 3.413 4.267 5.973 8.533 7.253l1.707 0.853c3.413 0.853 5.547 4.267 5.547 7.68 0 4.267 2.133 7.68 4.267 10.667l3.413 2.987 8.533 11.093v0.853c2.56 3.413 4.267 7.253 5.12 11.52s0 8.533-1.707 12.8l-0.853 1.707c-1.707 4.267-2.56 7.253-2.987 11.093l-1.28 11.947-1.28 12.8c0 4.267 1.707 8.533 4.267 12.8 2.987 3.413 5.12 7.68 6.827 11.947v1.707l0.853 0.853c0.853 4.267-1.28 8.533-5.12 8.533-4.267 2.133-8.533 5.547-9.813 10.667l-1.28 2.56c-2.133 7.68-3.413 15.36-3.413 23.040l0.853 21.333v1.28c0 7.253-5.973 12.8-12.8 12.8h-0.853c-8.533 0-15.36 2.56-21.333 8.533l-3.413 4.267-8.533 9.813-11.093 12.8c-4.267 5.973-8.533 11.093-14.080 16.213-4.267 4.267-10.667 8.533-17.067 9.387l-8.533 1.28c-4.267 0.853-9.813 2.987-14.507 5.973-3.413 2.56-8.533 1.707-11.947-1.707l-5.547-5.973-2.56-1.707c-2.987-0.853-5.973 0.853-7.253 4.267-1.707 5.12-1.707 11.093 0.853 16.213v2.56c0 2.987-2.56 5.12-5.12 4.267h-6.827c-7.68 0-15.36 0.853-22.613 4.267l-4.267 1.707c-4.267 2.133-9.387 3.413-14.080 3.413-4.267 0-8.533-0.853-12.8-3.413l-1.707-1.28c-5.12-3.413-11.093-5.12-17.067-5.547h-14.080c-6.4 0-12.8-2.133-17.067-5.547-5.547-3.413-11.52-5.547-17.92-6.827l-11.52-1.707c-5.12-1.28-10.667-3.413-15.36-7.253-4.267-4.267-10.24-6.827-15.787-8.533l-2.133-0.853c-6.827-2.133-12.8-6.4-17.067-12.8l-5.12-5.12c-2.987-4.267-2.987-9.387 0-13.653 2.56-4.267 7.68-5.547 12.8-4.267l6.4 2.56c3.413 1.28 7.253 0 10.24-1.707 2.56-2.133 6.4-3.413 10.24-2.987l10.667 1.28c5.973 0 11.947 0 17.92-1.707 6.4-2.133 11.947-4.267 17.067-8.533s10.667-5.973 17.067-6.827c6.4-0.853 12.8-2.133 18.773-4.267l4.267-0.853c4.267-1.28 7.68-4.267 10.24-8.533 2.133-3.413 4.267-8.533 4.267-12.8v-1.28c0-5.12 4.267-8.533 8.533-8.533h2.56c6.827 0 14.080-0.853 21.333-2.987l2.987-1.28c4.267-1.707 8.533-4.267 11.52-8.533 3.413-4.267 5.547-8.533 6.827-12.8l1.28-5.973c1.28-6.4 1.707-12.8 1.707-19.627v-2.133c0-4.267 2.987-8.533 7.68-10.24 4.267-0.853 9.387-2.56 14.080-5.12l2.133-0.853c5.547-3.413 11.093-7.68 15.36-12.8l2.133-2.987c5.547-6.4 8.533-14.507 8.533-22.613v-2.987c0-6.4-1.28-12.8-3.413-18.773-1.707-5.12 0-11.093 5.547-12.8l2.987-2.133c6.4-2.56 11.947-7.253 16.213-12.8 4.267-6.4 5.973-13.653 5.973-21.333v-12.8c-0.853-4.267-2.133-7.68-4.267-10.667s-2.133-7.253 0-10.24l2.56-4.267zM567.467 445.013h-0.853c-1.707 0-2.56-2.133-2.133-4.267l1.707-8.533c1.707-6.827 2.56-13.653 3.413-20.48s4.267-12.8 9.387-17.067h1.707c6.4-5.12 10.24-12.8 10.667-20.48v-21.333c-0.853-4.267 0-8.533 2.56-11.947l2.133-2.133c4.267-5.12 5.973-11.093 6.4-17.067l1.28-23.467c0-5.547-3.413-10.24-8.533-11.093l-4.267-0.853c-2.987 0-4.267-3.413-4.267-6.4 0-3.413 1.28-7.253 2.56-10.667v-0.853c1.28-4.267 1.707-8.533 1.28-12.8l-1.707-11.52c-1.707-8.533-4.267-16.213-8.533-23.893l-2.987-5.12c-2.133-4.267-5.12-6.827-8.533-8.533-4.267-1.707-7.253-5.12-8.533-9.387l-3.413-15.36c-2.133-8.533-5.973-17.067-11.093-25.6h-0.853c-5.12-6.827-11.52-12.8-19.2-17.067l-5.12-3.413-12.8-6.4c-4.267-1.707-6.827-5.547-7.68-10.24l-2.133-14.080c-1.28-8.533-4.267-15.787-10.24-21.333l-5.547-6.4-6.4-6.4-6.4-6.827c-5.12-5.973-12.8-8.533-21.333-7.253l-15.36 2.987-14.080 1.707h-3.84c-1.707-1.707-2.133-4.267-0.853-6.827 2.987-5.12 7.68-8.533 12.8-8.533l9.387-1.707c4.267 0 9.387-2.133 13.653-4.267 4.267-2.987 8.533-5.12 13.653-6.4h0.853c5.547-2.133 11.52-2.56 17.067-2.133l6.4 0.853c7.253 0.853 14.080 0 20.053-2.56l5.12-1.707c2.133-0.853 5.547 0 7.68 2.133 2.56 2.56 5.12 4.267 8.533 5.547l3.413 0.853c5.547 1.707 11.093 2.56 17.067 2.56h3.413c5.12 0 9.813-0.853 14.080-3.413l1.707-0.853c2.987-1.28 6.4 0 8.533 2.56 1.28 2.987 4.267 5.973 7.253 8.533l10.667 7.253 10.24 6.4c4.267 2.987 10.24 4.267 15.36 4.267l15.36 1.28c5.973 0.853 11.093 5.12 12.8 11.093 1.707 6.4 4.267 12.8 8.533 18.347s8.533 10.24 12.8 14.507c5.547 4.267 11.093 6.4 17.067 6.827h3.413c6.827 1.28 11.947 7.68 11.52 14.507v28.587c0.853 4.267 2.56 9.813 5.12 14.080l8.533 12.8 3.413 4.267c2.56 2.133 4.267 5.12 7.253 8.533l4.267 5.547c2.56 4.267 2.56 9.813-0.853 13.653-4.267 4.267-6.4 10.24-7.253 16.213v1.707c-0.853 6.827-0.853 14.080 1.28 21.333v2.133c2.133 5.547 5.12 11.093 8.533 16.213 3.413 4.267 2.987 10.24-1.28 13.653l-7.253 6.4c-5.973 5.12-9.387 12.8-10.24 20.48l-0.853 8.533c0 2.56 0 5.547-0.853 8.533l-0.853 6.4c-0.853 7.253-5.12 12.8-11.093 17.067l-2.987 0.853c-4.267 2.56-8.533 6.4-11.947 11.52-3.413 4.267-5.12 10.24-6.4 16.213l-1.28 7.253c0 2.56-1.707 4.267-4.267 5.547l-20.48 6.4c-4.267 0.853-8.533 4.267-11.52 7.253h-0.853c-2.56 3.413-6.827 3.413-9.387 0.853l-4.267-4.267c-0.853-1.28-1.707-1.707-2.987-1.28-2.56 0-4.267 2.133-3.413 4.267 0.853 6.827-1.707 13.653-7.253 17.92l-5.547 4.267-12.8 8.533c-3.413 1.28-8.533 0-10.24-4.267l-1.707-2.56c0-0.853-1.28-1.28-1.707-1.707-1.707 0-4.267 0-4.267 2.133l-1.28 2.133c-1.28 2.56-4.267 4.267-6.827 5.12zM516.267 402.347l-2.133 2.133c-2.133 1.707-4.267 1.28-6.4-0.853-2.987-5.12-5.547-10.667-6.827-16.213v-0.853c-1.28-5.547-6.4-9.387-11.52-8.533h-5.12c-5.973 0-10.667-5.12-10.667-11.093 0-7.68-2.56-15.36-7.253-21.333l-2.56-2.56c-4.267-5.547-10.667-9.387-17.067-11.52l-3.413-0.853c-4.267-1.28-7.68-4.267-8.533-9.387 0-4.267-2.56-8.533-5.973-11.947l-4.267-3.413c-5.12-5.547-12.8-8.533-20.48-9.387l-21.333-2.133c-6.827 0-12.8-4.267-17.067-10.667s-10.667-10.667-17.067-11.52l-9.387-0.853c-6.827-0.853-14.080-0.853-21.333 0.853l-4.267 0.853-11.52 2.987c-4.267 1.28-7.68 0-10.24-2.987l-4.267-5.547c-5.547-6.4-13.653-9.387-21.333-8.533l-27.733 3.413c-4.267 0-7.68 2.133-11.52 4.267-4.267 2.56-7.253 5.547-10.24 8.533l-10.667 12.8c-1.28 0.853-3.413 1.28-5.547 0.853l-5.973-2.56-23.893-5.973c-4.267-1.28-9.813 0-14.080 2.56-4.267 3.413-9.387 4.267-14.507 4.267h-5.547c-5.12-1.28-8.533-6.827-6.827-11.947l1.707-8.533c1.28-4.267 0.853-9.387-1.28-13.653s-1.707-8.533 1.28-12.8l2.56-3.413c3.413-5.12 8.533-9.387 12.8-13.653s8.533-8.533 11.947-14.080l6.4-11.52c3.413-5.973 8.533-9.387 15.36-9.387 6.4 0 12.8-2.133 17.92-6.4l12.8-11.947c3.413-2.987 8.533-3.413 11.947-0.853l2.133 0.853c2.56 0 4.267-1.707 4.267-4.267v-2.133c0-5.547 4.267-10.667 9.813-12.8l19.2-4.267c6.827-2.133 13.653-4.267 20.053-8.533h3.413c3.413 0 6.4 2.987 5.973 6.827v14.933c0 4.267 1.707 8.533 5.12 10.24l2.133 0.853c2.133-0.853 4.267-2.56 3.413-4.267v-7.253c0-5.547 1.707-10.667 5.547-14.507 4.267-4.267 9.813-5.12 14.507-3.413 5.12 2.133 10.24 2.56 15.787 2.133l15.787-0.853c7.68-0.853 14.933 0 21.333 2.987 7.68 2.56 14.080 5.973 20.053 10.667l2.56 1.707 12.8 11.52c4.267 4.267 9.813 6.4 14.933 6.4h17.067c8.533 0.853 16.213 8.533 17.067 17.067l1.707 8.533c0 5.547 2.56 10.667 6.4 14.933 4.267 4.267 8.533 6.827 12.8 8.533l5.12 2.133c7.253 2.987 12.8 9.387 15.36 17.067l2.56 10.24c2.133 8.533 6.4 17.067 12.8 22.613l0.853 0.853c5.12 4.267 5.973 12.8 2.56 18.773l-1.28 2.987c-2.987 4.267-3.413 10.667-1.28 16.213 2.133 5.973 4.267 11.093 7.68 16.213l4.267 5.973c1.707 3.413 1.707 8.533-0.853 11.52-2.56 3.413-4.267 7.68-4.267 11.947l-0.853 5.973v14.507c0.853 4.267 0 9.813-1.28 14.080l-1.707 5.12zM455.253 434.773v1.28c0 4.267-2.56 6.827-5.973 6.827h-11.093c-4.267-0.853-8.533-0.853-11.947 0h-19.2c-9.813 0-19.2 1.707-28.587 4.267l-10.24 2.56-8.533 2.56-19.2 6.4c-10.24 2.987-17.92 9.813-22.613 19.2l-2.133 4.267c-2.987 6.4-9.387 9.813-15.787 8.533-7.253 0-14.507 0-21.333 3.413l-5.12 2.133c-9.813 4.267-17.067 12.8-17.067 24.32l-1.707 11.52c-1.28 5.973-5.12 11.52-10.24 13.653-5.973 2.56-11.52 5.973-17.067 9.813l-2.133 1.28c-6.4 5.12-11.947 11.947-14.933 20.053l-0.853 2.56c-2.133 6.827-2.56 14.080-0.853 21.333l0.853 2.56c1.707 5.547 2.133 11.093 2.133 17.067 0 5.12-2.133 10.24-5.973 14.080l-5.973 5.547c-6.827 5.547-11.093 13.653-11.52 22.613-0.853 9.387-0.853 18.347 0.853 27.307v2.56c0 5.12-4.267 8.533-8.533 8.533h-1.28c-5.547 0-10.24-3.413-12.8-8.533-2.133-5.973-5.547-10.667-9.387-15.36l-1.707-2.133-12.8-12.8c-4.267-4.267-6.827-10.667-7.68-17.067s-2.56-12.8-5.12-18.773l-0.853-2.133c-2.133-5.12-5.547-9.813-9.813-12.8-4.267-3.413-7.253-8.533-7.253-13.653l-0.853-19.627c0-8.533-1.28-17.067-4.267-25.6l-0.853-3.413c-2.133-5.547 0-11.52 5.12-14.080l17.92-7.68 1.707-0.853c1.28 0 1.707-0.853 2.133-2.133 1.28-1.707 0-4.267-1.28-4.267l-4.267-2.133c-2.56-0.853-4.267-3.413-5.12-6.4l-0.853-4.267v-0.853l-4.267-23.893c-0.853-3.413-0.853-7.253-0.853-11.093 0-3.413 2.133-6.4 5.12-7.68l9.387-4.267c4.267-2.56 9.387-5.547 12.8-8.533l4.267-3.413c1.28-1.707 3.413-3.413 5.12-4.267l1.707-1.707c2.987-2.56 5.12-5.973 5.973-9.813l4.267-19.2c0-5.12 4.267-9.387 8.533-10.667l6.827-2.133s1.28 0 2.133-0.853l8.533-2.56c6.827-2.133 12.8-5.973 17.92-11.093 5.12-4.267 10.24-9.813 14.507-15.787l1.707-1.707c3.413-4.267 8.533-6.4 13.653-5.12s10.667 1.707 16.213 1.707h6.4c4.267 0 9.813-1.28 14.507-4.267 4.267-2.56 9.813-4.267 14.933-6.4h1.28c5.12-2.133 10.667-1.28 14.933 1.707 4.267 3.413 9.813 5.12 15.36 5.12l20.053-1.28c4.267 0 8.533 0.853 10.667 4.267h0.853l7.253 6.827 2.133 2.133c3.413 4.267 8.533 5.973 13.653 6.4h19.2c5.12 0 9.813 4.267 11.947 8.533s6.4 7.68 11.52 8.533l8.533 1.707c3.413 0 6.4 2.987 7.68 6.827 1.28 4.267 3.413 7.68 6.4 10.24l6.827 6.827c4.267 4.267 6.4 8.533 7.253 13.653z" />
<glyph unicode="&#xe907;" glyph-name="figma" data-tags="figma" d="M512 448c0 94.257 76.41 170.667 170.667 170.667s170.667-76.41 170.667-170.667v0c0-94.257-76.41-170.667-170.667-170.667s-170.667 76.41-170.667 170.667v0zM170.667 106.667c0 94.257 76.41 170.667 170.667 170.667v0h170.667v-170.667c0-94.257-76.41-170.667-170.667-170.667s-170.667 76.41-170.667 170.667v0zM512 960v-341.333h170.667c94.257 0 170.667 76.41 170.667 170.667s-76.41 170.667-170.667 170.667v0h-170.667zM170.667 789.333c0-94.257 76.41-170.667 170.667-170.667v0h170.667v341.333h-170.667c-94.257 0-170.667-76.41-170.667-170.667v0zM170.667 448c0-94.257 76.41-170.667 170.667-170.667v0h170.667v341.333h-170.667c-94.257 0-170.667-76.41-170.667-170.667v0z" />
<glyph unicode="&#xe908;" glyph-name="wii" data-tags="wii" d="M763.904 692.864c-31.104 0.597-56.747-24.107-57.344-55.168v-0.768c0.512-31.232 26.112-56.107 57.344-55.68 33.408 0 59.904 24.704 59.904 55.68 0.043 31.232-26.453 55.936-59.904 55.936zM964.864 692.864c-31.872 0-58.027-24.747-58.027-55.936 0-30.336 26.155-55.68 58.069-55.68 32.725 0 59.093 24.704 59.093 55.68 0 31.232-26.368 55.936-59.136 55.936zM331.691 669.696c-31.915 0-53.419-15.957-64.597-51.84-10.325-36.565-76.544-291.072-76.544-291.072l-86.869 338.944h-103.68s99.584-361.131 113.152-403.456c10.283-32.64 35.84-59.136 72.533-59.136 43.051 0 63.104 31.232 71.851 59.136 9.6 28.843 74.155 267.136 74.155 267.136s64.64-238.464 73.344-267.136c9.6-27.861 29.44-59.136 71.765-59.136 37.504 0 62.123 26.496 73.387 59.136 13.44 42.24 113.365 403.456 113.365 403.456h-104.533l-86.229-338.944s-66.133 254.507-77.312 291.072c-10.325 36.011-32.853 51.84-63.787 51.84zM716.032 526.208v-319.787h99.072v319.787h-99.072zM916.267 526.208v-319.787h98.859v319.787h-98.859z" />
<glyph unicode="&#xe909;" glyph-name="ghost" data-tags="ghost" d="M409.771 140.843h-409.429v-204.843h409.472v204.843zM1023.744 140.843h-409.216v-204.843h409.216v204.843zM1023.872 550.4h-1023.872v-204.8h1023.872v204.8zM1024 960h-204.843v-204.843h204.843v204.843zM614.571 960h-614.229v-204.843h614.229v204.843z" />
<glyph unicode="&#xe90a;" glyph-name="aventrix" data-tags="aventrix" d="M512-64c-282.795 0-512 229.205-512 512s229.205 512 512 512 512-229.205 512-512-229.205-512-512-512zM741.163 283.221c-9.813-6.869-27.477-13.739-46.123-13.739-19.627 0-34.347 7.851-34.347 36.309v213.803c0 134.357-59.861 184.363-176.597 184.363-64.725 0-122.667-15.659-155.989-35.285-13.739-22.571-16.683-60.8-9.813-85.333 42.685 26.764 94.482 42.787 149.995 43.178l0.107 0.001c76.501 0 107.947-34.347 107.947-115.755v-25.515c-28.459 11.733-65.749 15.659-98.091 15.659-110.891 0-196.224-47.061-196.224-161.835 0-106.923 73.557-147.115 157.952-147.115 64.768 0 109.867 20.608 138.325 57.899h3.925c7.851-36.309 33.365-57.899 77.483-57.899h0.384c23.765 0 45.952 6.571 64.939 17.963l-0.555-0.299c12.757 17.664 18.645 48.043 16.683 73.557zM461.525 269.525c-52.949 0-94.165 22.571-94.165 73.557 0 52.011 42.197 88.277 123.605 88.277 0.458 0.003 1.001 0.005 1.544 0.005 30.063 0 58.865-5.398 85.49-15.277l-1.7 0.553v-96.128c-25.515-37.291-72.619-50.987-114.773-50.987z" />
<glyph unicode="&#xe90b;" glyph-name="vue-dot-js" data-tags="vue-dot-js" d="M819.072 891.392l0.128 0.256h-188.8l-118.4-204.8-118.272 204.8h-188.8v-0.213h-204.928l512-886.869 512 886.827z" />
<glyph unicode="&#xe90c;" glyph-name="adobeillustrator" data-tags="adobeillustrator" d="M0 947.2v-998.4h1024v998.4h-1024zM42.667 904.533h938.667v-913.067h-938.667v913.067zM355.2 381.867l-33.792-127.915c-0.725-3.541-2.133-4.352-6.315-4.352h-62.635c-4.267 0-4.907 1.408-4.267 6.315l121.173 424.32c2.133 7.68 3.499 14.421 4.181 35.541 0 2.816 1.408 4.267 3.541 4.267h89.429c2.816 0 4.267-0.768 4.949-4.267l135.893-460.544c0.725-3.541 0-5.632-3.541-5.632h-70.4c-3.541 0-5.632 0.853-6.315 3.669l-35.2 128.64h-136.832zM474.155 451.2c-11.947 47.189-40.107 150.528-50.688 200.533h-0.725c-9.131-49.92-31.659-134.4-49.28-200.533h100.693zM666.155 688.341c0 27.435 18.987 43.648 43.648 43.648 26.027 0 43.648-17.579 43.648-43.648 0-28.16-18.347-43.648-44.373-43.648-25.6 0-43.093 15.488-43.093 43.648zM670.933 591.317c0 3.413 1.408 4.693 4.949 4.693h66.987c3.755 0 5.12-1.408 5.12-4.949v-336.853c0-3.541-0.683-4.949-4.907-4.949h-66.133c-4.267 0-5.675 2.133-5.675 5.547v336.555z" />
<glyph unicode="&#xe90d;" glyph-name="plex" data-tags="plex" d="M496.768 960h-297.088l327.637-512-327.637-512h297.088l327.552 512-327.552 512z" />
<glyph unicode="&#xe90e;" glyph-name="imdb" data-tags="imdb" d="M610.56 550.912v-0.213c-3.285 2.048-9.685 2.987-17.92 2.987v-205.44c11.52 0 18.773 2.56 21.333 7.040 2.645 4.437 4.053 17.28 4.053 37.76v122.283c0 14.080-0.171 23.040-1.408 26.88-0.939 4.096-2.859 6.955-5.973 8.704zM956.416 960h-887.296c-37.461-2.56-66.56-31.744-69.12-68.096v-886.784c2.56-37.291 30.379-65.792 66.347-68.992 0.64-0.128 1.28-0.128 1.92-0.128h889.387c37.547 3.755 66.133 35.243 66.347 72.96v878.080c0 37.973-29.653 69.973-67.584 72.96zM204.459 293.291h-81.28v314.283h81.28v-314.283zM483.499 293.376h-70.912v212.053l-28.587-212.011h-50.688l-29.781 207.36-0.299-207.36h-71.125v314.155h105.301c3.541-22.315 6.827-44.715 9.813-67.157l11.52-79.787 18.859 146.944h105.941v-314.197zM695.851 386.389c0-27.947-1.877-46.677-4.437-56.32-2.645-9.387-7.253-17.067-13.909-22.187-6.4-5.547-14.507-9.301-24.32-11.349-9.515-1.92-24.32-3.2-43.52-3.2l-0.171 0.085h-98.347v314.155h60.843c38.997 0 61.867-2.005 75.52-5.461 13.867-3.84 24.533-9.6 31.787-17.92 7.040-7.68 11.648-17.237 13.355-27.52 2.133-10.027 3.243-30.080 3.243-59.819v-110.421zM906.795 366.123c0-19.2-1.92-32.597-3.84-42.24-2.56-9.557-8.32-17.237-17.28-24.235-9.643-7.083-20.48-10.24-33.28-10.24-9.387 0-21.333 2.56-29.013 5.803-8.107 4.011-15.275 10.112-21.973 18.219l-4.949-20.053h-73.259v314.197l-0.853 0.128h76.8v-102.4c6.4 7.467 13.44 13.227 21.76 17.067 8.363 3.541 19.883 5.419 29.44 5.419 9.643 0.128 19.2-1.536 28.16-4.907 7.253-2.987 13.653-7.893 18.603-14.080 3.84-5.333 6.4-11.52 7.68-17.92 1.28-5.888 1.877-18.347 1.877-37.12v-87.637zM814.080 481.92c-5.12 0-8.277-1.707-9.6-5.12-1.28-3.413-2.56-12.373-2.56-26.624v-83.029c0-13.824 1.28-22.741 2.56-26.581 1.707-3.669 5.547-5.973 9.643-5.717 5.12 0 11.605 2.005 12.8 5.973 1.28 4.139 1.963 13.653 1.963 28.757l1.28 0.085v80.64c0 12.928-0.64 21.675-2.56 25.728-1.877 4.267-8.32 5.973-13.44 5.973z" />
<glyph unicode="&#xe90f;" glyph-name="applepay" data-tags="applepay" d="M187.221 606.549c-12.032-14.379-31.232-25.685-50.432-24.064-2.389 19.413 6.997 40.021 18.005 52.779 12.032 14.763 33.024 25.216 50.005 26.069 2.005-20.224-5.803-40.021-17.579-54.784zM204.587 578.645c-27.776 1.621-51.627-16-64.768-16-13.44 0-33.621 15.189-55.637 14.763-28.587-0.427-55.168-16.768-69.76-42.88-30.037-52.139-7.808-129.408 21.163-171.861 14.208-21.035 31.232-44.075 53.632-43.264 21.163 0.811 29.568 13.952 55.168 13.952 25.813 0 33.195-13.952 55.637-13.568 23.168 0.427 37.76 21.035 51.968 42.069 16.213 23.893 22.827 47.104 23.211 48.341-0.427 0.427-44.8 17.579-45.227 69.333-0.384 43.307 34.987 63.915 36.608 65.109-19.968 29.952-51.2 33.195-61.995 34.005zM365.227 637.269v-315.264h48.427v107.776h66.987c61.184 0 104.192 42.496 104.192 103.936 0 61.483-42.197 103.552-102.571 103.552h-117.077zM413.653 596.011h55.808c41.984 0 65.963-22.613 65.963-62.464s-23.979-62.72-66.176-62.72h-55.637v125.227zM673.237 319.616c30.421 0 58.624 15.531 71.424 40.235h0.981v-37.845h44.8v156.928c0 45.483-36.011 74.837-91.392 74.837-51.413 0-89.387-29.739-90.795-70.571h43.605c3.584 19.413 21.376 32.128 45.781 32.128 29.611 0 46.208-13.952 46.208-39.637v-17.365l-60.416-3.669c-56.192-3.413-86.613-26.667-86.613-67.115 0-40.832 31.403-67.925 76.416-67.925zM686.251 356.992c-25.813 0-42.24 12.544-42.24 31.744 0 19.84 15.829 31.36 46.037 33.195l53.76 3.413v-17.792c0-29.525-24.747-50.56-57.6-50.56zM850.261 236.245c47.189 0 69.376 18.219 88.747 73.429l84.992 241.067h-49.195l-57.003-186.24h-0.981l-57.003 186.24h-50.603l81.963-229.547-4.395-13.952c-7.381-23.637-19.371-32.725-40.789-32.725-3.797 0-11.179 0.427-14.208 0.811v-37.845c2.816-0.811 14.805-1.195 18.432-1.195z" />
<glyph unicode="&#xe910;" glyph-name="steam" data-tags="steam" d="M511.104 960c-268.843 0-489.301-207.36-510.165-470.912l274.432-113.408c23.253 15.829 51.328 25.173 81.579 25.173 2.688 0 5.333-0.171 8.021-0.256l122.069 176.725v2.517c0 106.453 86.528 193.024 193.024 193.024 106.411 0 193.024-86.656 193.024-193.152s-86.613-193.067-193.024-193.067h-4.48l-173.909-124.203c0-2.219 0.171-4.48 0.171-6.784 0-80-64.64-144.896-144.64-144.896-69.76 0-128.683 50.048-142.123 116.352l-196.48 81.365c60.843-214.912 258.133-372.48 492.501-372.48 282.752 0 511.957 229.248 511.957 512s-229.248 512-511.957 512zM321.707 183.040l-62.848 26.027c11.179-23.168 30.464-42.624 56.064-53.333 55.339-22.997 119.168 3.243 142.165 58.667 11.221 26.88 11.264 56.277 0.213 83.157s-32 47.829-58.752 59.008c-26.624 11.093-55.040 10.624-80.128 1.28l64.981-26.88c40.789-17.067 60.117-64 43.051-104.747-16.939-40.832-63.872-60.16-104.704-43.179h-0.043zM808.747 579.968c0 70.912-57.728 128.64-128.64 128.64-71.040 0-128.64-57.728-128.64-128.64 0-71.040 57.6-128.64 128.64-128.64 70.955 0 128.64 57.6 128.64 128.64zM583.765 580.181c0 53.419 43.221 96.683 96.64 96.683 53.291 0 96.683-43.264 96.683-96.683 0-53.376-43.392-96.64-96.683-96.64-53.461 0-96.64 43.264-96.64 96.64z" />
<glyph unicode="&#xe911;" glyph-name="toptal" data-tags="toptal" d="M863.019 531.712l-428.331 428.288-87.040-87.040 160.981-160.811-347.947-347.861 428.416-428.288 86.997 86.997-160.939 160.896 347.861 347.819zM354.176 351.189l258.816 258.688 52.181-52.181-258.731-260.821-52.181 53.76-0.085 0.555z" />
<glyph unicode="&#xe912;" glyph-name="vlcmediaplayer" data-tags="vlcmediaplayer" d="M507.349 385.579c160.299 0 207.104 57.472 216.107 71.424l-58.027 184.917c-15.36-14.507-56.619-39.979-157.013-39.979-97.792 0-136.021 24.192-150.187 38.827l-59.307-188.672c9.728-15.403 53.547-66.56 208.427-66.56zM508.459 797.568c36.744 0.423 71.53 8.342 103.050 22.293l-1.674-0.661-36.608 116.651c-3.164 8.326-9.317 14.909-17.118 18.559l-0.204 0.086s-4.907 5.504-42.539 5.504-45.013-5.803-45.013-5.803c-8.16-3.434-14.436-9.988-17.424-18.13l-0.070-0.217-37.717-120.107c28.245-10.873 60.907-17.479 95.020-18.171l0.297-0.005zM963.84-34.944c0.059 0.531 0.093 1.147 0.093 1.771 0 1.805-0.284 3.544-0.809 5.174l0.033-0.119-99.584 325.632c-3.771 10.457-13.394 17.894-24.817 18.387l-0.057 0.002h-70.955l8.533-27.307c-10.24-20.693-63.488-101.547-268.928-101.547-196.267 0-248.661 73.813-260.693 98.475l9.515 30.379h-70.869c-11.481-0.496-21.104-7.932-24.814-18.197l-0.061-0.192-99.584-325.675c-0.493-1.518-0.777-3.265-0.777-5.078 0-0.465 0.019-0.926 0.055-1.382l-0.004 0.060-0.085-0.853c0.16-3.545 0.526-6.863 1.092-10.113l-0.068 0.47c1.742-10.664 10.772-18.741 21.735-18.986h858.436c10.988 0.246 20.018 8.323 21.742 18.856l0.018 0.13c0.486 2.79 0.838 6.111 0.976 9.487l0.005 0.156z" />
<glyph unicode="&#xe913;" glyph-name="gnusocial" data-tags="gnusocial" d="M179.925 960c-74.368 0-134.699-60.288-134.699-134.656v-538.197c0-74.411 60.331-134.741 134.699-134.741h399.659c-0.725-152.32-205.995-216.405-205.995-216.405s347.221 1.621 397.013 216.405h73.387c74.411 0 134.699 60.331 134.699 134.699v538.197c0 74.411-60.331 134.699-134.656 134.699h-664.064zM373.077 852.053c3.115 0.555 5.632 0.128 7.424-1.451 14.293-12.8-23.723-25.301-20.651-88.021 1.365-27.563-6.827-48.896 45.909-48.896 35.243 0 20.608 31.317 64.981 31.317 27.989 0 36.693-18.56 39.851-32.725 3.072 14.080 11.691 32.768 39.68 32.768 44.373 0 29.867-31.275 65.067-31.275 52.779 0 44.544 21.333 45.909 48.896 3.072 62.72-34.987 75.264-20.651 88.021 1.792 1.579 4.267 1.792 7.339 0.853 21.333-6.101 68.565-66.475 69.888-91.947 1.621-30.293 1.707-77.867-43.307-102.699 50.773-49.792 57.685-116.053 57.685-116.053l-87.253 1.451s-19.797 90.368-125.44 85.76c-105.557-4.608-119.296-22.955-119.296-134.656 0-111.659 48.939-150.059 123.947-152.96 117.76-4.608 107.093 61.141 107.093 61.141l-55.040-3.072-30.635 82.645h188.16c0-90.283-38.272-230.997-217.259-221.867-179.029 9.216-218.795 149.973-220.331 244.907-0.768 52.267 8.021 111.019 51.2 152.491-44.885 24.747-44.075 72.533-44.075 102.997 0 37.547 48.213 88.917 69.845 92.587z" />
<glyph unicode="&#xe914;" glyph-name="tumblr" data-tags="tumblr" d="M621.355-64c-217.301 0-299.989 160.256-299.989 273.536v334.592h-103.083v132.224c154.88 56.021 192.512 196.096 200.96 276.011 0.597 5.461 4.907 7.637 7.381 7.637h150.059v-260.864h204.843v-155.008h-205.653v-318.72c0.683-42.709 16-101.163 94.165-101.163h3.84c26.923 0.853 63.403 8.747 82.603 17.877l49.323-146.133c-18.603-27.136-102.4-58.624-177.323-59.904h-7.595l0.469-0.085z" />
<glyph unicode="&#xe915;" glyph-name="pingup" data-tags="pingup" d="M583.125 960h-509.696v-1024h321.536v609.408h-117.76c-21.504 0-27.733 13.397-13.653 29.781l184.491 215.211c13.952 16.384 36.992 16.384 50.987 0l184.491-215.211c13.397-16.384 7.68-29.781-14.080-29.781h-117.717v-284.843h31.147c265.6 0 367.659 183.851 367.659 361.856 0.555 170.923-111.445 337.579-367.403 337.579z" />
<glyph unicode="&#xe916;" glyph-name="csswizardry" data-tags="csswizardry" d="M1.28 259.072v653.227c0 26.368 21.333 47.701 47.659 47.701h923.861c26.624 0 47.787-21.333 47.787-47.787v-629.76c-28.587 17.493-62.293 26.283-100.565 26.283-53.504 0-94.080-12.8-121.771-38.229-27.733-25.515-41.387-56.661-41.387-94.933 0-41.387 14.080-72.107 42.667-91.733 16.64-12.16 47.36-23.040 91.307-32.512l44.8-10.24c26.88-5.675 45.653-12.8 58.027-19.627 11.947-7.808 18.347-18.645 18.347-32.64 0-24.149-12.373-40.747-37.12-48.981l-1.28-0.683h-94.293c-12.245 4.437-21.76 10.837-29.44 19.2-7.68 9.557-12.8 23.467-15.36 43.221h-84.48c0-24.149 4.395-44.587 14.080-63.147h-71.68c8.107 16.64 12.8 35.115 12.8 56.192 0 37.547-12.8 66.133-37.803 86.016-15.957 12.672-40.107 22.827-72.021 30.592l-73.387 17.152c-28.16 5.973-46.507 11.947-55.467 17.067-13.227 7.68-19.627 19.2-19.627 33.707 0 16.213 6.827 29.013 20.053 37.973 14.080 8.96 32 13.227 55.040 13.227 20.907 0 37.547-3.84 51.627-11.093 21.077-10.923 32-29.44 33.707-54.912h85.333c-1.28 44.629-17.707 79.061-49.067 102.571-31.744 23.467-69.333 35.627-113.92 35.627-53.547 0-93.653-12.8-121.728-37.547-27.307-24.875-41.387-56.747-41.387-94.293 0-41.387 14.080-72.021 42.667-91.733 17.152-11.52 47.787-22.315 91.733-32.427l44.587-10.24c26.027-5.76 45.227-12.16 58.027-19.84 11.947-7.68 18.347-18.347 18.347-32.427 0-24.32-12.8-40.107-37.547-49.067h-95.573c-12.117 4.523-22.187 10.923-29.44 19.84-7.68 9.387-13.227 24.064-15.787 43.264h-86.059c0-23.808 4.48-44.8 13.653-63.147h-89.173c14.080 22.187 23.595 47.787 28.288 76.373h-87.595c-5.973-21.76-13.312-38.315-22.4-49.067-11.093-14.080-25.6-23.040-43.52-27.52h-52.352c-19.2 4.48-35.712 15.275-49.067 32.427-19.797 23.808-29.355 59.477-29.355 106.667 0 47.787 9.813 84.053 28.16 110.080 19.2 26.155 43.947 38.827 76.373 38.827 32 0 55.467-8.96 72.107-27.477 8.96-10.24 16.64-25.6 22.187-45.909h88.747c-1.28 26.368-11.093 52.907-29.269 79.36-32.939 46.933-85.077 70.4-156.331 70.4-49.493 0-91.051-15.36-124.16-45.227l-2.133 4.693zM1020.757 103.936v66.304h-22.016c-1.493 25.472-12.8 43.605-33.408 54.357-13.355 6.997-30.592 10.581-50.901 10.581-23.040 0-40.747-4.693-54.187-13.739-13.312-9.173-20.395-22.101-20.395-38.485 0-15.147 7.083-26.453 20.352-33.92 9.387-4.48 27.733-10.837 55.893-17.237l73.387-17.493c12.8-2.56 23.893-6.4 34.133-9.813l-2.133-1.28z" />
<glyph unicode="&#xe917;" glyph-name="ovh" data-tags="ovh" d="M848.256 529.28l109.355 189.867c42.24-74.411 66.389-160.384 66.389-252.16 0-122.88-43.392-235.648-115.627-324.011h-282.453l87.040 151.083h-115.029l135.509 235.221h114.816zM749.269 752.981l-351.061-609.621 0.128-0.384h-282.752c-72.32 88.405-115.584 201.131-115.584 324.011 0 91.819 24.32 177.92 66.603 252.501l183.211-318.421 202.453 351.915h297.003z" />
<glyph unicode="&#xe918;" glyph-name="coffeescript" data-tags="coffeescript" d="M197.973 641.28c89.6-22.613 203.947-34.133 341.76-34.133 140.8 0 252.587 11.52 341.76 34.133 95.147 22.187 140.8 52.053 140.8 80.213 0 20.053-20.48 39.68-57.6 54.613 8.533-5.547 14.933-14.933 14.933-25.173 0-28.587-43.093-52.053-129.707-71.68-80.213-17.493-182.613-29.867-307.2-29.867-120.32 0-227.413 12.373-304.64 29.013-83.2 20.48-126.72 42.667-126.72 71.68 0 11.947 5.547 22.187 22.187 34.133-52.053-20.053-80.213-37.12-80.213-62.72 2.987-29.013 49.493-58.027 144.64-80.213zM398.080 733.44c96.853 8.533 125.013 70.827 238.507 81.067 55.893 4.267 91.307-6.827 95.147-26.453 3.413-18.347-24.32-30.72-58.027-33.28-46.507-4.693-65.707 11.947-69.547 27.733-34.56-3.84-40.107-18.347-38.4-28.587 3.84-19.627 45.653-39.253 117.333-32.427 81.067 6.4 108.373 38.4 101.547 70.4-8.533 41.813-70.827 76.8-182.613 66.133-143.36-12.8-142.507-79.36-240.213-87.467-40.107-3.84-62.293 5.547-66.133 21.333-2.56 15.787 17.067 23.467 40.107 25.173 21.333 2.133 47.36-1.707 59.733-8.533 8.96 4.693 11.947 9.387 11.093 14.933-4.267 14.933-33.707 21.333-70.827 18.773-72.533-6.4-72.533-38.827-69.973-53.333 7.253-37.12 63.147-61.867 132.267-55.467zM885.333 569.6c-89.6-20.907-203.947-34.56-341.76-34.56-140.8 0-255.573 14.507-344.747 34.133-80.213 20.48-122.88 43.093-137.813 66.56 7.68-52.48 20.907-103.253 37.973-151.467-20.48-12.8-38.827-28.587-55.467-49.92-27.249-33.009-43.775-75.747-43.775-122.345 0-3.49 0.093-6.959 0.276-10.403l-0.020 0.481c3.299-45.755 26.178-85.578 60.212-111.512l0.375-0.274c37.12-29.013 77.227-37.547 122.88-29.013 17.493 2.987 37.12 11.947 55.040 17.92-37.547 0-69.12 11.947-100.693 37.12-33.857 23.737-57.351 60.272-63.476 102.436l-0.097 0.817c-8.533 40.107 0 77.227 22.613 110.080 5.12 6.4 10.667 11.947 16.64 17.067 12.8-31.147 26.453-61.867 41.813-90.453 34.56-52.48 69.12-98.133 103.68-147.627 14.933-29.013 24.747-57.6 31.573-86.187 22.888-31.337 55.822-54.142 93.998-63.755l1.148-0.245c49.067-17.067 100.267-24.747 152.747-21.76h5.547c5.674-0.265 12.326-0.416 19.013-0.416 49.531 0 97.129 8.274 141.488 23.516l-3.061-0.914c37.741 11.27 69.304 33.578 91.842 63.139l0.318 0.435h2.987c5.547 28.587 14.933 57.173 28.587 86.187 34.133 49.92 69.12 95.147 103.253 147.627 44.487 80.651 77.831 174.403 94.823 273.735l0.751 5.305c-18.347-25.6-61.44-48.213-138.667-65.707z" />
<glyph unicode="&#xe919;" glyph-name="virb" data-tags="virb" d="M756.608 651.221c0 10.667 0 20.309 6.4 26.667 8.491 7.509 17.067 6.4 25.6 6.4h60.928c32.683 0 80-8.491 112-37.419 32-29.824 39.040-72.576 39.040-111.104v-96.085c0-25.557 0.64-43.819-12.117-67.328-16-29.909-49.28-38.4-49.28-42.752 0-4.267 35.797-10.752 51.797-42.752 12.843-25.6 11.52-41.6 11.52-67.243v-132.48c0-26.24 0-59.52-38.357-104.32-36.48-40.235-86.997-46.080-112.64-46.080-19.157 0-33.237-0.683-52.48 0-12.757 1.323-31.957-0.683-36.437 5.845-6.357 9.515-8.277 7.595-8.277 36.437v672.555l2.304-0.341zM523.648-46.336c0-17.152-4.224-17.152-36.267-17.152-24.576 0-32 0-32 15.019v700.032c0 10.667 0.981 22.315 7.424 28.757 8.576 7.509 16 4.309 24.576 4.309h60.928c34.176 0 80.128-8.491 112.128-37.376 32-29.824 39.552-73.728 39.552-111.104v-96.427c0-25.557 1.067-43.819-11.776-67.328-16-29.909-50.176-38.4-50.176-42.752 0-4.267 35.2-10.752 51.2-42.752 12.8-25.6 11.819-41.6 11.819-67.243v-265.6c0-16.683-7.68-16.683-36.48-16.683-24.917 0-32-0.683-32 15.317v271.317c0 43.819-28.757 70.485-52.437 70.485-50.56 0-56.96 0.981-56.96-16v-323.84l0.469-0.981zM360.32-62.336c-28.843 0-32 0-32 14.933v714.624c0 13.867 6.315 16 32 16 28.757 0 36.267-0.981 36.267-16.981v-711.637c0-16-1.92-17.237-35.84-17.237l-0.427 0.299zM836.693 7.083c8.363-1.323 9.643-1.323 19.243-1.323 11.52 0 38.357 3.157 57.6 23.083 21.12 22.997 22.4 38.315 22.4 56.235v137.003c0 49.237-28.8 70.315-60.8 70.315-46.080 0-49.323-3.157-49.323-28.757v-224.597c0-12.245 0.64-32 10.24-33.323l0.64 1.365zM153.984 158.848c18.176 183.595 34.176 339.627 51.157 507.435 2.176 18.048 10.752 16.981 30.080 16.981 29.824 0 40.491-2.176 39.424-13.867-32-262.997-56.576-457.557-88.619-717.397-1.963-15.403-13.44-16-35.2-16-27.52 0-40.32 0-42.88 17.92-28.8 240.683-55.040 454.4-86.357 716.715-0.683 12.843 4.48 12.843 34.517 12.843 31.36 0 37.803-3.2 38.357-17.237 17.323-186.923 30.123-332.16 46.123-510.080 0-3.243 1.323-10.24 6.4-10.24 6.4 0 7.68 6.997 7.68 11.52l-0.683 1.408zM551.424 613.76c-9.6 0-19.243 0-23.595-7.381-3.157-6.4-3.157-11.819-3.157-18.219v-199.765c0-11.733-2.176-23.509 6.4-29.909 6.315-5.077 13.824-3.84 19.157-3.84 11.819 0 39.68 3.157 58.88 23.68 21.291 23.765 21.291 41.6 21.291 56.96v100.437c0 24.533-4.267 42.752-22.4 61.909-11.733 10.667-18.133 16-56.576 16v0.128zM860.075 613.76c-15.019 0-26.667 0-31.019-7.381-3.115-6.4-3.115-11.819-3.115-18.219v-199.765c0-11.733-1.109-21.333 6.357-28.843 6.357-6.4 10.709-5.333 19.2-5.333 14.933 0 39.552 3.157 58.88 23.424 21.248 23.765 21.248 39.765 21.248 56.96v101.12c0 24.533-4.224 42.752-22.443 61.909-11.733 10.667-19.115 16-49.109 16v0.128zM464.64 874.24h-67.328v68.907c0 15.829-7.381 16.853-35.669 16.853-25.045 0-31.36-2.091-31.36-15.701v-70.059h-65.579c-15.744 0-16.896-7.424-16.896-35.627 0-25.173 2.176-31.36 15.744-31.36h66.688v-66.091c0-14.592 3.2-14.592 31.317-14.592 33.536 0 35.669 0.981 35.669 16.768v63.787h69.419c14.72 0 14.72 3.243 14.72 31.403 0.043 33.536-1.024 35.669-16.725 35.712z" />
<glyph unicode="&#xe91a;" glyph-name="tripadvisor" data-tags="tripadvisor" d="M981.803 553.301c11.989 51.499 50.133 103.083 50.133 103.083h-171.179c-96.043 62.080-212.523 94.976-341.888 94.976-133.973 0-255.061-33.28-350.464-96.043h-160.469s37.76-50.603 49.92-101.803c-31.232-42.965-49.792-94.805-49.792-151.765 0-141.483 115.072-256.341 256.512-256.341 80.683 0 152.363 37.76 199.723 96.171l54.4-81.749 55.083 82.603c24.32-31.403 56.32-57.003 94.080-74.24 62.080-28.16 131.925-31.403 195.925-7.68 132.523 49.237 200.363 197.163 151.723 329.643-8.917 23.723-20.48 44.843-34.56 63.36l0.853-0.213zM846.507 208.896c-51.2-18.987-106.88-16.853-156.587 6.101-35.157 16.341-64.128 41.899-84.821 73.685-8.576 12.757-16 26.581-21.461 41.429-6.229 16.853-9.387 34.261-11.051 51.84-3.157 35.499 1.92 71.381 17.28 104.661 23.040 49.664 64.043 87.509 115.243 106.496 106.24 38.997 224-15.403 263.083-121.216 39.083-105.856-15.36-223.787-120.96-262.955h-0.725zM434.005 287.147c-36.821-54.229-99.072-90.155-169.515-90.155-112.896 0-204.843 91.989-204.843 204.672s91.989 204.885 204.843 204.885 204.715-92.203 204.715-204.885c0-6.997-1.28-13.397-2.048-20.437-3.456-34.603-14.549-67.243-33.152-94.763v0.683zM134.4 404.352c0-70.016 57.003-126.763 126.763-126.763s126.635 56.747 126.635 126.763c0 69.76-56.875 126.464-126.549 126.464-69.803 0-126.763-56.704-126.763-126.464h-0.085zM648.448 404.352c0-70.016 56.704-126.763 126.635-126.763 69.803 0 126.507 56.747 126.507 126.763 0 69.76-56.704 126.464-126.507 126.464-69.76 0-126.763-56.704-126.763-126.464h0.128zM178.176 404.352c0 45.696 37.077 82.901 82.603 82.901 45.397 0 83.157-37.248 83.157-82.901 0-45.909-37.077-83.243-83.157-83.243-46.123 0-83.243 37.333-83.243 83.243h0.64zM691.584 404.352c0 45.696 37.077 82.901 83.157 82.901 45.483 0 82.645-37.248 82.645-82.901 0-45.909-37.12-83.243-83.285-83.243-46.037 0-83.157 37.333-83.157 83.243h0.64zM518.656 706.56c92.203 0 175.403-16.597 248.405-49.579-27.52-0.768-54.4-5.589-81.323-15.36-64.64-23.68-115.84-71.040-144-133.333-13.44-28.16-20.48-57.984-23.083-88.107-9.6 131.243-117.76 235.307-250.923 237.995 73.003 31.317 157.525 48.384 249.045 48.384h1.877z" />
<glyph unicode="&#xe91b;" glyph-name="sourceforge" data-tags="sourceforge" d="M103.68 475.264c0 15.872 12.928 30.080 28.8 30.080h297.301c11.563 0.128 20.736 9.344 20.736 20.821v62.080c0 11.52-9.344 20.779-20.821 20.779h-326.016c-57.259-0.043-103.68-46.421-103.68-103.595v-114.987c0-57.259 46.336-103.723 103.509-103.723h214.229c15.872 0 28.843-14.123 28.843-30.123v-54.699c0-15.829-12.971-30.165-28.843-30.165h-297.003c-11.563 0-20.693-9.259-20.693-20.736v-61.995c0-11.435 9.216-20.736 20.693-20.736h326.144c57.173 0 103.509 46.379 103.509 103.552v115.072c0 57.173-46.336 103.595-103.552 103.595h-214.4c-15.872 0-28.8 14.251-28.8 30.037v54.741zM1003.435 608.811h-214.357v115.456h214.187c11.349 0 20.608 9.259 20.608 20.736v62.037c0 11.563-9.173 20.736-20.651 20.736h-214.144c-57.173 0-103.552-46.379-103.552-103.552v-115.456h-99.285c-11.52 0-20.651-9.301-20.651-20.693v-62.251c0-11.435 9.216-20.651 20.608-20.651h99.2v-339.328c0-10.24 4.224-12.117 12.928-12.117 20.821 0 90.624 38.827 90.624 72.021v279.509h214.357c11.349 0 20.651 9.301 20.651 20.651v62.293c0 11.349-9.344 20.608-20.651 20.608h0.128z" />
<glyph unicode="&#xe91c;" glyph-name="bandcamp" data-tags="bandcamp" d="M0 160l317.312 576h706.688l-317.355-576h-706.645z" />
<glyph unicode="&#xe91d;" glyph-name="matrix" data-tags="matrix" d="M26.965 936.533v-977.067h70.315v-23.467h-97.28v1024h97.28v-23.467zM327.467 626.773v-49.365h1.408c13.184 18.901 29.141 33.451 47.659 43.691 18.475 10.453 39.936 15.573 64 15.573 23.040 0 44.075-4.565 63.189-13.397 19.115-8.875 33.493-24.832 43.52-47.275 10.837 15.957 25.6 30.123 44.117 42.325 18.517 12.245 40.533 18.347 65.963 18.347 19.328 0 37.205-2.389 53.76-7.125 16.555-4.693 30.549-12.203 42.368-22.613 11.776-10.453 20.864-23.851 27.563-40.576 6.485-16.725 9.813-36.821 9.813-60.459v-244.395h-100.224v206.976c0 12.203-0.427 23.851-1.365 34.645-0.749 10.384-3.503 19.965-7.876 28.587l0.196-0.427c-4.344 8.093-10.718 14.604-18.454 18.993l-0.234 0.122c-8.277 4.693-19.499 7.083-33.493 7.083-14.165 0-25.6-2.731-34.261-8.064-8.55-5.315-15.469-12.494-20.328-21.002l-0.152-0.289c-4.886-8.571-8.361-18.597-9.808-29.267l-0.048-0.429c-1.565-10.018-2.494-21.619-2.56-33.424v-203.505h-100.267v204.8c0 10.837-0.171 21.461-0.768 32.085-0.381 10.656-2.586 20.69-6.313 29.95l0.211-0.595c-3.602 8.998-9.741 16.347-17.529 21.354l-0.178 0.107c-8.277 5.333-20.309 8.107-36.437 8.107-4.736 0-11.051-1.024-18.731-3.157-7.68-2.176-15.36-6.101-22.613-12.032-7.296-5.888-13.611-14.379-18.731-25.387-5.12-11.051-7.68-25.6-7.68-43.52v-211.883h-100.224v365.44zM997.035-40.533v977.067h-70.315v23.467h97.28v-1024h-97.28v23.467z" />
<glyph unicode="&#xe91e;" glyph-name="wattpad" data-tags="wattpad" d="M979.499 180.907c0-75.733-57.899-133.589-133.547-133.589h-445.312c-227.029 0-356.181 120.192-356.181 333.909v333.867c0 75.691 57.899 133.547 133.589 133.547h133.547c22.272 0 48.981-4.437 66.816-17.792 17.792 13.355 44.501 17.792 66.773 17.792h133.547c22.272 0 48.981-4.437 66.773-17.792 17.835 13.355 44.544 17.792 66.816 17.792h133.547c75.691 0 133.547-57.856 133.547-133.547v-534.272zM845.952 893.227h-133.589c-22.272 0-44.544-4.48-66.816-13.355-19.732 8.321-42.662 13.216-66.719 13.354h-133.601c-22.272 0-44.544-4.48-66.773-13.355-19.745 8.327-42.691 13.223-66.765 13.354h-133.598c-98.255-0.29-177.825-79.875-178.091-178.108v-333.934c0-235.947 151.381-378.453 400.683-378.453h445.227c98.27 0.29 177.849 79.9 178.091 178.153v534.252c-0.29 98.24-79.851 177.8-178.063 178.091h-0.028zM400.683 180.907h445.227v534.187h-133.547v-445.184h-133.547v445.227h-133.589v-445.227h-44.587c-44.501 0-89.045 35.627-89.045 111.317v333.867h-133.547v-333.909c0-133.547 62.293-200.363 222.592-200.363z" />
<glyph unicode="&#xe91f;" glyph-name="strava" data-tags="strava" d="M656.512 194.389l-89.131 175.616h-130.773l219.904-434.005 219.733 434.005h-130.816zM446.421 608.896l121.003-238.848h178.005l-299.008 589.952-298.667-589.995h177.877z" />
<glyph unicode="&#xe920;" glyph-name="dropbox" data-tags="dropbox" d="M256 882.901l-256-163.072 256-163.072 256.043 163.072-256.043 163.072zM768 882.901l-256-163.072 256-163.072 256 163.072-256 163.072zM0 393.643l256-163.072 256.043 163.072-256.043 163.072-256-163.072zM768 556.715l-256-163.072 256-163.072 256 163.072-256 163.072zM256 176.171l256.043-163.072 256 163.072-256 163.072-256.043-163.072z" />
<glyph unicode="&#xe921;" glyph-name="tesla" data-tags="tesla" d="M512 731.221l105.6 129.109s181.12-3.84 361.429-87.637c-46.165-69.803-137.856-104.021-137.856-104.021-6.229 61.397-49.237 76.373-185.771 76.373l-143.403-809.045-144.256 809.216c-135.68 0-178.688-15.104-184.96-76.459 0 0-91.563 33.92-137.771 103.68 180.267 83.84 361.387 87.723 361.387 87.723l105.6-128.939-0.171-0.085h0.171v0.085zM512 897.579c145.707 1.28 312.576-22.528 483.328-97.28 22.827 41.301 28.672 59.52 28.672 59.52-186.667 74.069-361.472 99.541-512 100.181-150.528-0.64-325.333-26.027-512-100.224 0 0 8.32-22.4 28.672-59.563 170.752 74.923 337.621 98.56 483.328 97.493v-0.128z" />
<glyph unicode="&#xe922;" glyph-name="processwire" data-tags="processwire" d="M936.064 735.147c-31.061 46.379-82.731 99.371-134.613 133.675-107.776 73.813-232.619 100.011-343.040 88.576-115.157-12.416-213.76-55.808-294.827-128.171-75.093-67.072-124.672-149.077-146.517-227.285-22.101-78.208-19.157-150.613-11.264-205.141 8.32-55.339 35.883-124.971 35.883-124.971 5.632-13.355 13.44-18.773 17.493-21.035 20.139-11.008 53.205-1.323 78.592 27.179 1.28 1.749 1.963 4.181 1.28 6.229-7.083 27.264-9.643 47.787-12.16 63.659-5.76 31.403-8.32 84.011-4.48 132.651 1.92 26.325 7.040 54.485 16 84.011 17.323 58.325 53.845 119.211 110.933 169.813 61.483 54.485 140.331 88.149 215.296 96.853 26.283 3.157 76.288 6.187 136.491-8.661 12.843-3.2 67.968-17.579 126.933-57.515 42.923-29.184 77.483-65.195 101.291-100.821 24.235-34.005 50.56-91.349 58.283-133.333 10.923-47.787 10.923-98.432 3.157-147.755-9.6-49.408-26.923-97.451-53.845-139.733-18.56-32.768-57.045-76.075-102.528-108.587-41.003-28.843-87.808-49.664-135.851-61.184-24.32-5.76-48.725-9.429-73.728-10.24-22.229-0.683-51.712 0-72.405 3.499-30.763 4.907-37.163 12.757-44.203 23.424 0 0-4.907 7.68-6.272 28.245 0.469 187.947 0.384 137.771 0.384 235.349 0 27.563-0.896 52.565-0.64 75.264 1.28 37.248 4.437 62.848 31.061 90.581 19.243 20.437 46.165 32.768 75.819 32.768 9.003 0 40.021-0.427 67.285-23.083 29.227-24.405 34.133-57.771 35.285-66.688 6.656-52.181-27.819-91.051-41.045-100.907-16.384-12.288-31.104-18.261-41.045-21.76-21.163-7.083-44.416-9.131-65.323-7.765-3.2 0.213-6.101-1.877-6.741-5.077l-7.040-36.523c-6.869-27.733 8.533-37.888 17.493-41.472 28.629-8.832 54.016-12.501 84.096-10.24 46.123 3.243 91.605 21.419 130.219 57.429 32.853 31.232 51.584 69.76 57.984 112.853 6.4 47.829-1.92 99.328-23.723 142.933-23.979 48.085-65.365 88.235-119.893 110.208-55.083 21.675-98.901 22.443-155.392 8.021l-0.64-0.213c-36.693-12.629-68.096-28.203-100.779-61.952-22.4-23.296-40.747-51.499-51.925-83.328-11.093-32.085-14.080-56.021-14.592-93.227-0.683-27.563 0.64-53.163 0.64-77.141v-157.909c0-50.517-1.707-59.264 0-85.248 0.939-17.237 3.328-36.736 10.88-57.685 7.765-23.083 24.064-46.763 35.243-57.685 15.659-16.683 35.584-30.080 55.168-38.4 44.843-19.925 105.728-23.083 155.093-21.163 32.683 1.237 65.536 5.76 97.749 13.397 64.427 15.317 126.293 43.179 180.693 81.835 58.325 41.088 109.013 97.152 137.003 144.768 35.883 56.576 59.093 120.064 71.168 185.301 10.88 65.365 10.368 132.395-4.224 196.779-11.52 59.733-42.283 125.269-77.781 178.176l1.621-1.579z" />
<glyph unicode="&#xe923;" glyph-name="microsoft" data-tags="microsoft" d="M486.4-64h-486.4v486.4h486.4v-486.4zM1024-64h-486.4v486.4h486.4v-486.4zM486.4 473.6h-486.4v486.4h486.4v-486.4zM1024 473.6h-486.4v486.4h486.4v-486.4z" />
<glyph unicode="&#xe924;" glyph-name="protonmail" data-tags="protonmail" d="M512 91.648s-46.763 4.608-83.413 30.080c-36.693 25.429-280.747 200.021-280.747 200.021v-345.515s2.048-40.235 46.293-40.235h635.733c44.203 0 46.293 40.192 46.293 40.192v345.6s-244.181-174.592-280.747-200.107c-36.693-25.387-83.413-30.037-83.413-30.037zM512 959.915s-301.867 9.899-364.16-325.205v-228.267s2.56-24.405 71.253-74.027c68.565-49.579 246.315-189.269 292.992-189.269 46.421 0 224.171 139.648 292.907 189.312 68.565 49.664 71.168 74.112 71.168 74.112v228.267c-62.293 334.891-364.16 324.992-364.16 324.992zM718.763 510.379h-413.44v124.331c41.984 166.4 206.677 168.704 206.677 168.704s164.821-2.304 206.763-168.704v-124.331z" />
<glyph unicode="&#xe925;" glyph-name="squarespace" data-tags="squarespace" d="M966.613 587.989c-76.885 76.843-201.643 76.843-280.064 0l-313.643-313.6c-19.2-19.2-19.2-51.2 0-70.4 19.2-19.157 51.2-19.157 70.4 0l313.643 313.643c38.357 38.357 100.779 38.357 139.264 0 38.4-38.4 38.4-100.864 0-139.264l-308.864-308.864c38.4-38.357 100.779-38.357 139.221 0l238.464 238.464c78.336 78.421 78.336 203.221 1.579 280.021zM861.013 484.011c-19.243 19.2-51.243 19.2-70.4 0l-313.771-315.264c-38.4-38.357-100.736-38.357-139.179 0-19.2 19.2-51.2 19.2-70.4 0s-19.2-51.2 0-70.357c76.843-76.843 201.643-76.843 280.064 0l313.643 313.6c19.157 20.779 19.157 52.864 0.043 72.021zM756.949 797.611c-76.843 76.843-201.643 76.843-280.064 0l-313.643-313.643c-19.2-19.157-19.2-51.157 0-70.357s51.2-19.2 70.4 0l315.52 313.643c38.4 38.357 101.163 38.357 139.52 0 19.243-19.2 51.243-19.2 70.4 0 17.963 20.779 17.963 51.157-1.237 70.357h-0.896zM651.349 693.632c-19.2 19.2-51.2 19.2-70.4 0l-313.643-315.264c-38.357-38.4-100.821-38.4-139.307 0-38.4 38.357-38.4 100.821 0 139.264l308.864 308.864c-38.4 38.4-100.779 38.4-139.221 0l-240.043-238.507c-76.8-76.8-76.8-201.6 0-280.021 76.843-76.843 201.6-76.843 280.064 0l313.6 313.643c19.243 20.821 19.243 52.821 0 72.021h0.085z" />
<glyph unicode="&#xe926;" glyph-name="autotask" data-tags="autotask" d="M765.013 463.957l118.699-298.155h-183.381l-77.867 202.069-421.76-284.459-158.037 338.987h34.773l187.307-145.835 324.693 176.981-46.293 120.32-49.835-105.856-210.688-115.883 151.595 398.592h216.619l86.272-216.747 286.891 156.373v269.653h-1024v-1024h1024v702.635z" />
<glyph unicode="&#xe927;" glyph-name="wheniwork" data-tags="wheniwork" d="M512-64c-284.075 0-512 231.168-512 512 0 284.075 227.925 512 512 512s512-227.925 512-512c0-280.832-227.925-512-512-512zM512 874.069c-234.539 0-426.112-191.531-426.112-426.069 0-234.581 191.573-426.155 426.112-426.155 234.581 0 426.112 191.573 426.112 426.155 0 234.539-191.531 426.069-426.112 426.069zM763.093 398.421h-370.005c-16.384 0-29.653 13.184-29.781 29.483v43.179c0 16.512 13.269 29.739 29.781 29.739h373.248c16.512 0 29.739-13.269 29.739-29.739v-42.923c-3.285-16.512-16.512-29.739-32.981-29.739zM667.264 563.584h-373.248c-16.341-0.085-29.739 13.099-29.781 29.483v43.093c0 13.269 13.227 26.496 29.739 26.496h373.248c13.227 0 26.453-13.269 26.453-26.411v-42.923c0.043-16.469-13.227-29.739-26.411-29.739zM294.016 332.416h373.248c16.555 0 29.696-13.269 29.696-29.739v-42.923c0.085-16.341-13.184-29.653-29.483-29.739h-373.461c-16.555 3.243-29.739 16.512-29.739 32.981v42.923c-0.043 13.227 13.184 26.496 29.739 26.496z" />
<glyph unicode="&#xe928;" glyph-name="webpack" data-tags="webpack" d="M896.67 186.871l-369.694-208.205v162.163l230.34 126.153 139.349-80.111zM921.958 209.673v435.426l-135.287-77.739v-279.863l135.287-77.824zM124.83 186.871l369.694-208.205v162.163l-230.34 126.153-139.349-80.111zM99.541 209.673v435.426l135.283-77.739v-279.863l-135.283-77.824zM115.371 673.271l379.153 213.572v-156.791l-244.753-134.076-134.4 77.295zM906.133 673.271l-379.157 213.572v-156.791l244.753-134.080 134.4 77.295zM494.528 177.715l-227.251 124.395v246.498l227.243-130.645v-240.247zM526.976 177.715l227.243 124.395v246.498l-227.243-130.645v-240.247zM282.667 577.135l228.126 124.928 228.13-124.928-228.13-131.174-228.126 131.174z" />
<glyph unicode="&#xe929;" glyph-name="bigcartel" data-tags="bigcartel" d="M512 402.432v42.923c0 26.88 10.752 53.589 37.547 64.341l332.373 209.067c21.461 10.752 32.213 37.547 32.213 64.427v176.811l-402.133-257.28-402.133 257.28v-541.44c0-144.811 64.427-268.117 171.52-337.792l225.28-144.768 225.28 144.768c107.221 64.427 171.52 187.648 171.52 337.749v241.28l-391.467-257.365z" />
<glyph unicode="&#xe92a;" glyph-name="microsoftword" data-tags="microsoftword" d="M1023.957 800.725v-706.005c0-6.016-2.133-10.88-6.357-14.763-4.309-4.011-9.429-5.888-15.36-5.888h-365.184v97.92h297.899v44.587h-298.155v54.571h297.899v44.544h-297.685v55.040h297.813v44.032h-297.813v55.168h297.813v44.544h-297.813v54.571h297.813v44.501h-297.813v55.68h297.813v42.411h-297.813v110.635h365.312c6.357 0 11.52-2.048 15.275-6.357 4.48-4.224 6.4-9.387 6.357-15.189zM582.4 932.651v-969.472l-582.4 100.779v765.184l582.4 103.509zM494.507 646.443l-72.917-4.48-46.763-289.493h-1.067c-2.304 13.696-10.88 61.653-26.24 143.659l-27.264 139.221-68.437-3.413-27.392-135.808c-16-79.104-24.917-125.141-27.264-138.069h-0.64l-41.6 266.667-62.72-3.328 67.2-336.341 69.717-4.48 26.24 130.901c15.36 76.8 24.32 121.429 26.24 133.632h1.92c2.603-13.013 10.923-58.624 26.24-136.96l26.24-134.741 75.52-4.48 84.48 377.6h-1.493z" />
<glyph unicode="&#xe92b;" glyph-name="javascript" data-tags="javascript" d="M0 960h1024v-1024h-1024v1024zM940.117 180.224c-7.467 46.72-37.888 85.973-128.128 122.581-31.403 14.72-66.304 24.96-76.672 48.64-3.883 14.080-4.48 21.76-1.963 30.080 6.4 27.563 39.040 35.84 64.64 28.16 16.64-5.12 32-17.92 41.643-38.4 44.117 28.843 44.117 28.843 74.88 48-11.52 17.92-17.237 25.643-25.003 33.28-26.88 30.080-62.677 45.44-120.917 44.117l-30.080-3.797c-28.843-7.040-56.32-22.4-72.96-42.88-48.64-55.083-34.603-151.083 24.277-190.763 58.24-43.52 143.403-53.077 154.283-94.080 10.24-49.92-37.12-65.92-83.883-60.16-34.603 7.68-53.76 25.003-74.88 57.003l-78.080-44.843c8.96-20.48 19.2-29.397 34.56-47.317 74.24-74.923 259.84-71.083 293.163 42.837 1.237 3.84 10.24 30.080 3.157 70.4l1.963-2.859zM556.843 489.344h-95.915c0-82.688-0.384-164.864-0.384-247.68 0-52.565 2.688-100.821-5.888-115.669-14.080-29.397-50.347-25.643-66.816-20.48-16.896 8.363-25.472 19.883-35.413 36.48-2.688 4.48-4.693 8.363-5.419 8.363l-77.867-48c13.013-26.88 32-50.005 56.491-64.725 36.48-21.76 85.504-28.8 136.832-17.28 33.408 9.643 62.208 29.483 77.269 60.203 21.76 39.68 17.152 88.32 16.939 142.763 0.512 87.637 0 175.317 0 263.637l0.171 2.389z" />
<glyph unicode="&#xe92c;" glyph-name="samsung" data-tags="samsung" d="M845.508 521.353l1.958-114.918h-0.981l-33.25 114.918h-54.771v-144.747h36.186l-1.954 118.827h0.981l35.695-118.827h52.326v144.747zM156.484 521.353l-27.383-146.219h39.612l20.049 133.013h0.977l19.563-133.009h39.121l-26.897 146.214zM377.519 521.353l-18.091-111.497h-0.981l-18.091 111.497h-59.661l-2.935-146.219h36.676l0.981 131.55h0.486l24.448-131.546h37.167l24.452 131.541h0.981l0.973-131.541h36.676l-3.422 146.214zM67.486 416.704c1.463-3.422 0.977-8.316 0.486-10.761-0.977-4.89-4.399-9.779-14.182-9.779-9.289 0-14.669 5.376-14.669 13.205v14.178h-39.121v-11.247c0-32.764 25.916-42.543 53.303-42.543 26.406 0 48.41 9.293 51.836 33.254 1.954 12.715 0.486 21.026 0 23.962-6.848 30.805-62.592 39.607-66.509 56.725-0.486 2.935-0.486 5.867 0 7.825 0.981 4.89 4.403 9.779 13.205 9.779s13.696-5.376 13.696-13.205v-8.802h36.672v10.27c0 31.787-28.851 36.676-49.391 36.676-25.916 0-47.433-8.802-51.345-32.273-0.981-6.357-1.468-12.228 0.486-19.563 5.871-30.319 58.197-39.121 65.527-57.702zM543.3 416.704c1.463-3.426 0.973-7.825 0.486-10.761-0.981-4.89-4.403-9.779-14.182-9.779-9.293 0-14.669 5.376-14.669 13.205v14.178h-39.125v-11.247c0-32.273 25.429-42.057 52.817-42.057 26.406 0 47.923 8.802 51.345 33.254 1.958 12.715 0.491 20.54 0 23.962-5.867 30.319-61.129 39.612-65.037 56.235-0.491 2.935-0.491 5.871 0 7.829 0.977 4.89 4.399 9.779 13.201 9.779 8.311 0 13.696-5.376 13.696-13.205v-8.802h36.181v10.27c0 31.787-28.361 36.676-48.896 36.676-25.92 0-46.95-8.311-50.859-32.273-0.981-6.357-0.981-12.228 0.486-19.563 5.871-30.319 57.216-38.63 64.555-57.702zM666.53 397.141c10.27 0 13.201 6.848 14.178 10.761 0.491 1.463 0.491 3.913 0.491 5.376v108.075h37.163v-105.139c0-2.935 0-8.311-0.486-9.779-2.445-27.388-23.962-36.19-50.859-36.19-26.893 0-48.41 8.802-50.859 36.19 0 1.468-0.486 6.844-0.486 9.779v105.139h37.163v-108.075c0-1.954 0-3.908 0.491-5.376 0-3.913 2.935-10.761 13.205-10.761zM971.674 398.609c10.761 0 14.182 6.848 15.159 10.761 0.491 1.463 0.491 3.913 0.491 5.376v21.030h-15.159v21.517h51.836v-39.125c0-2.931 0-4.885-0.491-9.779-2.445-26.893-25.429-36.186-51.345-36.186-25.92 0-48.9 9.293-51.345 36.186-0.491 4.894-0.491 6.848-0.491 9.783v61.611c0 2.449 0.491 7.339 0.491 9.783 3.422 27.388 25.429 36.19 51.345 36.19s48.414-8.802 51.345-36.19c0.491-4.399 0.491-9.779 0.491-9.779v-4.89h-36.676v8.311s0 3.426-0.491 5.38c-0.486 3.422-3.422 10.756-14.669 10.756-10.756 0-13.696-6.844-14.669-10.756-0.491-1.954-0.491-4.403-0.491-6.848v-66.995c0-1.954 0-3.908 0.491-5.376 0-3.913 3.913-10.761 14.178-10.761z" />
<glyph unicode="&#xe92d;" glyph-name="yelp" data-tags="yelp" d="M900.736 182.357c-6.016-41.344-90.411-148.608-129.237-164.139-13.269-5.291-26.069-4.011-36.267 3.84-6.571 5.12-13.397 15.573-104.405 163.285l-27.008 44.032c-10.411 15.787-8.491 36.565 4.437 52.437 12.672 15.317 31.232 21.077 47.403 14.933 0.853-0.512 68.096-22.656 68.096-22.656 153.088-50.304 158.080-52.224 164.565-57.088 9.685-7.936 14.165-20.267 12.16-34.688h0.256zM593.92 407.083c-10.837 16.469-10.667 35.883 0.512 49.28l42.581 57.984c93.397 127.317 98.603 134.016 104.917 138.453 10.923 7.296 24.32 7.637 37.163 1.365 37.077-18.005 111.915-129.237 116.437-171.904v-1.451c1.237-14.549-4.48-26.368-14.763-33.451-6.997-4.48-13.397-7.083-187.435-49.323-27.52-6.997-42.837-10.837-51.84-14.037l1.237 1.28c-17.237-5.12-36.437 3.157-47.317 20.437l-1.493 1.365zM487.083 473.045c-8.32-2.603-33.664-10.453-64.811 40.021 0 0-210.389 331.051-215.339 341.248-2.987 11.52 0.64 24.491 10.88 34.987 31.317 32.469 201.259 80 245.76 69.163 14.507-3.755 24.491-12.843 27.989-25.771 2.56-14.293 23.253-321.536 26.24-390.357 2.816-58.88-22.4-66.773-30.72-69.291zM514.859 136.277c-0.469-161.024-0.811-166.4-3.456-174.037-4.48-11.989-14.763-20.011-29.056-22.613-40.96-6.997-169.259 40.363-196.011 72.107-5.12 6.997-8.32 13.995-8.96 21.035-0.683 5.12 0 10.24 1.92 14.763 3.2 8.32 7.68 14.72 122.88 149.76l33.877 40.277c11.563 14.72 32 19.2 51.157 11.563 18.603-7.040 30.123-23.040 28.843-40.32v-71.68l-1.195-0.853zM165.717 239.275c-12.587 0.427-23.893 7.979-30.507 20.48-4.736 9.173-8.064 24.32-10.155 42.752-5.845 55.509 1.237 139.264 17.877 165.845 7.808 12.16 19.2 18.603 31.787 18.176 8.32 0 15.744-2.603 180.437-70.4l48.213-19.157c17.237-6.4 27.904-24.32 26.88-44.843-1.28-19.84-12.715-35.157-29.611-39.68l-68.48-21.76c-153.173-49.28-158.251-50.56-166.315-49.92l-0.128-1.493zM804.736-63.872h-0.171l-0.213-0.128 0.384 0.128z" />
<glyph unicode="&#xe92e;" glyph-name="cloudflare" data-tags="cloudflare" d="M704.375 241.284c6.302 21.611 3.9 41.417-6.605 56.119-9.6 13.5-25.813 21.312-45.316 22.212l-369.446 4.821c-2.402 0-4.501 1.131-5.7 3.029-1.199 1.792-1.502 4.194-0.896 6.626 1.195 3.563 4.8 6.34 8.7 6.63l372.745 4.821c44.117 2.078 92.139 37.82 108.945 81.634l21.308 55.522c0.896 2.402 1.199 4.821 0.602 7.177-24.009 108.638-120.947 189.675-236.791 189.675-106.842 0-197.478-69.030-229.888-164.766-21.009 15.607-47.723 24.004-76.531 21.308-51.319-5.094-92.437-46.217-97.536-97.536-1.203-13.227-0.307-26.112 2.697-38.118-83.733-2.402-150.656-70.831-150.656-155.162 0-7.497 0.597-15.014 1.498-22.507 0.597-3.563 3.601-6.323 7.202-6.323h681.865c3.9 0 7.505 2.756 8.704 6.613zM822.020 478.677c-3.302 0-6.903 0-10.206-0.482-2.398 0-4.501-1.788-5.402-4.177l-14.404-50.116c-6.302-21.611-3.904-41.417 6.601-56.124 9.604-13.513 25.813-21.303 45.321-22.208l78.63-4.821c2.402 0 4.501-1.131 5.7-3.029 1.199-1.792 1.502-4.535 0.896-6.63-1.195-3.58-4.8-6.336-8.704-6.626l-81.929-4.821c-44.416-2.065-92.134-37.82-108.941-81.638l-6.003-15.3c-1.199-3.034 0.896-6.016 4.203-6.016h281.51c3.302 0 6.302 2.082 7.202 5.355 4.8 17.408 7.501 35.712 7.501 54.618 0 111.049-90.633 201.685-201.975 201.685z" />
<glyph unicode="&#xe92f;" glyph-name="deviantart" data-tags="deviantart" d="M819.499 755.456l9.813 18.347v186.197h-186.325l-18.603-18.773-87.808-167.467-27.563-18.603h-313.6v-255.701h172.373l15.36-18.603-178.133-340.48-10.24-18.347v-186.027h186.24l18.603 18.773 88.32 167.467 27.477 18.603h313.6v255.701h-172.8l-15.36 18.688 178.603 340.352z" />
<glyph unicode="&#xe930;" glyph-name="verizon" data-tags="verizon" d="M780.885 960l157.781-0.128-483.243-1023.872h-128.512l-241.579 512h159.019l147.157-313.045z" />
<glyph unicode="&#xe931;" glyph-name="googlekeep" data-tags="googlekeep" d="M853.12 618.88c0 187.52-153.557 341.12-341.12 341.12s-341.12-153.6-341.12-341.12c0-108.8 51.2-208.64 136.277-273.28v-340.437h69.163v-69.163h271.317v69.12h69.163v340.48c85.803 64 136.32 165.12 136.32 273.28zM375.68 73.643v67.2h272.683v-67.2h-272.683zM375.68 209.92v67.2h272.683v-67.2h-272.683zM663.68 391.723l-15.317-10.24v-35.883h-272.683v35.84l-14.72 10.24c-76.8 51.157-121.6 135.68-121.6 227.157 0 150.4 121.6 272.683 272.64 272.683s272.64-121.643 272.64-272.683c0-91.52-44.8-176.64-121.6-227.157h0.64z" />
<glyph unicode="&#xe932;" glyph-name="tails" data-tags="tails" d="M911.189 483.755v-169.813c0-5.205-3.456-6.571-7.723-3.029l-86.699 71.765c-4.382 3.949-7.261 9.493-7.718 15.71l-0.005 0.077v21.376l-27.093 22.016c-29.013 23.637-52.309 71.552-52.309 106.667 0 35.072 23.424 44.203 52.309 20.395l27.093-22.016v21.419c0 5.205 3.456 6.571 7.723 3.029l86.699-71.765c4.267-3.499 7.723-10.581 7.723-15.787zM783.488 537.728c-15.275 12.629-27.648 7.765-27.648-10.795s12.373-43.819 27.648-56.448l25.557-20.736v67.243l-25.557 20.736zM904.619 109.483l0.555 0.427c0.574 0.48 1.090 0.982 1.565 1.521l0.013 0.015 0.171 0.171c0.475 0.576 0.926 1.217 1.326 1.892l0.039 0.071 0.299 0.555c0.282 0.5 0.555 1.091 0.782 1.704l0.029 0.088 0.171 0.427c0.228 0.663 0.422 1.455 0.545 2.269l0.010 0.078v0.597l0.128 1.152 0.128 6.485-222.848 182.613 0.939 550.827-6.443 4.864-1.451 0.853c-0.299 0.171-0.597 0.427-0.939 0.555l-1.28 0.427c-0.427 0.171-0.853 0.384-1.28 0.469l-1.109 0.171c-0.555 0.085-1.109 0.213-1.664 0.213h-0.171l-0.981-0.043c-0.555 0-1.067-0.043-1.579-0.128l-1.28-0.299c-0.427-0.128-0.896-0.213-1.323-0.427-0.427-0.128-0.853-0.341-1.237-0.512l-1.237-0.64c-0.233-0.152-0.428-0.293-0.616-0.441l0.019 0.014c-0.512-0.171-1.024-0.299-1.493-0.555l-146.944-73.643 30.72-24.32 1.152-429.525-223.829 184.32-0.128 223.616-0.128 200.661-0.043 0.427c-0.029 0.552-0.090 1.065-0.182 1.567l0.011-0.074c-0.043 0.427-0.085 0.853-0.213 1.28l-0.341 1.28c-0.213 0.427-0.341 0.939-0.64 1.408l-0.085 0.384-0.427 0.64c-0.256 0.427-0.512 0.896-0.853 1.323l-0.768 0.981c-0.917 1.009-1.955 1.883-3.096 2.609l-0.061 0.036c-0.303 0.2-0.666 0.413-1.040 0.607l-0.070 0.033c-0.427 0.171-0.853 0.427-1.28 0.555-0.733 0.273-1.607 0.51-2.509 0.669l-0.094 0.014-1.493 0.171-0.853 0.085-0.384-0.043c-0.568-0.029-1.096-0.090-1.613-0.182l0.077 0.011c-0.427-0.043-0.853-0.085-1.28-0.213-0.427-0.085-0.811-0.256-1.237-0.384-0.566-0.168-1.033-0.342-1.486-0.543l0.078 0.031-0.384-0.171-185.131-92.8c-1.258-0.733-2.339-1.597-3.278-2.595l-0.007-0.007c-0.895-0.953-1.651-2.050-2.228-3.25l-0.034-0.078c-0.351-0.711-0.685-1.56-0.95-2.439l-0.031-0.121c-0.236-0.821-0.389-1.771-0.426-2.751l-0.001-0.022c-0.043-0.256-0.128-0.555-0.085-0.853l0.256-431.275v-0.853l0.085-0.341c0-0.64 0.128-1.28 0.256-1.877l0.085-0.384 0.171-0.469c0.244-0.891 0.535-1.656 0.889-2.385l-0.036 0.081v-0.043h0.043c0.384-0.768 0.853-1.451 1.323-2.133l0.299-0.427 0.256-0.256c0.416-0.494 0.849-0.94 1.31-1.354l0.012-0.011 0.256-0.256c0.171-0.128 0.341-0.213 0.427-0.341 0.085 0 0.128-0.128 0.213-0.171l200.533-166.784-4.565-114.048v-1.621l0.171-1.067 0.085-0.64c0-0.213 0.085-0.427 0.171-0.64 0-0.171 0.085-0.299 0.128-0.469l0.043-0.213 0.128-0.427c0.213-0.597 0.427-1.195 0.725-1.707v-0.085c0.412-0.798 0.851-1.483 1.346-2.122l-0.023 0.031 0.256-0.341 0.213-0.213c0.494-0.607 1.011-1.151 1.566-1.653l0.013-0.011 0.213-0.128 0.128-0.085 0.128-0.171 226.859-179.712c4.267-3.328 10.069-3.925 14.933-1.493l340.992 170.752c0.733 0.393 1.361 0.803 1.951 1.261l-0.031-0.023zM233.6 491.307l-70.656 54.571v-46.933l36.011-24.96-59.392-29.781-0.256 400.043 92.843 46.507 0.981-102.059-65.963 52.736v-46.933l66.304-52.693 1.024-50.432-68.053 54.443v-46.933l68.395-54.4-0.256-54.741-67.115 53.632v-46.933l67.413-53.589 0.427-50.645zM380.075 233.685l-226.517 186.24 156.501 78.379 226.517-186.24zM261.248 905.301l31.275 15.659 3.371-398.507-31.275-15.616zM367.659 601.771l-0.043 67.84 55.851-43.691 0.043-67.883zM423.509 679.765l-55.893 43.733v67.883l55.851-43.733zM470.101 711.851c21.632-27.563 43.776-81.365 43.776-131.115 0-49.707-22.144-66.645-43.776-58.112v189.227z" />
<glyph unicode="&#xe933;" glyph-name="pingdom" data-tags="pingdom" d="M510.293 200.363l339.584 144.896-300.757-308.949c-5.291 56.107-18.432 111.36-38.827 164.011v0.043zM1024 485.632c-217.643 10.069-435.541-17.664-643.712-81.92 43.691-45.781 80.256-97.792 108.16-154.496 172.459 96 411.563 218.581 535.552 235.989v0.427zM487.509 473.899l8.832 2.56c65.621 19.584 130.091 43.307 192.981 70.656 63.659 24.96 123.563 58.88 177.451 100.992 57.387 45.611 100.48 106.624 124.373 175.872 5.12 11.392 9.003 23.424 11.392 35.712-86.357-117.76-428.416-130.048-428.416-130.048l80.64 73.984c-234.923-0.811-464.043-75.051-654.763-212.48 129.28-13.739 250.752-68.096 347.264-155.051 46.336 14.336 93.696 24.576 140.203 37.504v0.256l0.043 0.043z" />
<glyph unicode="&#xe934;" glyph-name="hexo" data-tags="hexo" d="M512 959.701l-445.013-258.091v-511.744l445.013-253.653 445.013 258.091v511.744l-445.013 253.653zM716.715 229.888l-40.064-22.229-40.064 22.229v178.005h-249.173v-178.005l-40.107-22.229-40.021 22.229v436.139l40.064 22.229 40.064-22.229v-178.005h249.173v178.005l40.107 22.229 40.021-22.229v-436.139z" />
<glyph unicode="&#xe935;" glyph-name="airbnb" data-tags="airbnb" d="M511.915 180.608c-57.685 72.363-91.605 135.765-102.912 190.080-11.221 43.776-6.784 78.805 12.416 105.131 20.352 30.293 50.645 45.013 90.453 45.013s70.059-14.72 90.411-45.312c19.029-26.027 23.808-61.099 12.203-105.131-12.416-55.381-46.293-118.784-102.869-190.123zM921.387 131.968c-7.893-53.12-44.117-97.195-93.867-118.699-96.043-41.813-191.147 24.875-272.555 115.328 134.613 168.533 159.488 299.733 101.717 384.597-33.92 48.64-82.475 72.32-144.768 72.32-125.568 0-194.603-106.24-167.467-229.547 15.787-66.731 57.643-142.592 124.373-227.413-41.813-46.251-81.451-79.147-116.48-99.499-27.136-14.677-53.12-23.765-77.995-25.941-114.219-17.024-203.776 93.781-163.115 208.085 5.632 14.72 16.853 41.813 36.053 83.669l1.067 2.261c62.421 135.509 138.24 289.536 225.365 460.373l2.261 5.632 24.747 47.573c19.2 35.072 27.093 50.773 57.643 70.101 14.72 8.917 32.811 13.397 53.12 13.397 40.704 0 72.405-23.765 85.973-42.923 6.741-10.197 14.72-23.765 24.832-40.661l23.808-46.421 3.413-6.784c87.040-170.752 162.944-324.48 225.109-460.331l1.109-1.067 22.741-52.053 13.568-32.597c10.368-26.112 12.544-52.096 9.088-79.232zM973.397 233.899c-7.936 24.875-21.504 54.229-38.4 89.301v1.28c-80.512 170.88-155.307 324.48-226.304 462.507l-4.736 6.912c-50.603 103.765-86.827 166.101-192.043 166.101-104.021 0-148.224-72.277-193.408-166.272l-3.456-6.827c-71.168-137.984-145.92-291.797-226.176-462.592v-2.261l-23.808-52.011c-8.96-21.504-13.525-32.768-14.72-36.139-57.6-158.379 61.099-297.472 204.8-297.472 1.152 0 5.632 0 11.264 1.152h15.872c74.667 9.088 151.595 56.533 229.632 141.483 77.995-84.821 155.008-132.395 229.547-141.483h15.872c5.632-1.152 10.155-1.152 11.264-1.152 143.701-0.128 262.4 139.093 204.8 297.472z" />
<glyph unicode="&#xe936;" glyph-name="linux" data-tags="linux" d="M533.461 960c-6.613 0-13.44-0.341-20.437-0.896-180.352-14.208-132.523-205.099-135.253-268.715-3.285-46.635-12.8-83.371-44.843-128.896-37.76-44.843-90.752-117.333-115.883-192.896-11.861-35.499-17.493-71.851-12.245-106.197-1.664-1.451-3.243-2.901-4.736-5.76-11.093-11.435-19.157-25.643-28.245-35.797-8.491-8.491-20.693-11.392-34.005-17.067-13.355-5.803-28.075-11.477-36.864-29.056-3.84-8.021-5.803-16.768-5.632-25.643 0-8.491 1.152-17.109 2.347-22.869 2.475-17.024 4.949-31.104 1.664-41.387-10.581-29.013-11.904-48.896-4.48-63.36 7.424-14.251 22.827-20.011 40.064-25.643 34.603-8.533 81.493-5.76 118.4-25.557 39.509-19.925 79.616-28.629 111.616-20.053 22.443 4.907 41.387 19.755 51.541 40.32 25.045 0.128 52.48 11.477 96.427 14.251 29.824 2.475 67.157-11.392 109.995-8.491 1.067-5.76 2.688-8.491 4.864-14.251l0.128-0.128c16.683-33.195 47.488-48.299 80.384-45.696 32.896 2.56 67.925 22.869 96.299 55.723 26.923 32.64 71.808 46.251 101.461 64.128 14.848 8.491 26.837 20.011 27.691 36.395 0.981 17.067-8.491 34.645-30.464 58.752v4.139l-0.128 0.128c-7.253 8.533-10.667 22.827-14.421 39.509-3.627 17.109-7.765 33.536-20.992 44.629h-0.128c-2.517 2.304-5.248 2.859-8.021 5.76-2.389 1.621-5.163 2.645-8.107 2.731 18.389 54.528 11.264 108.8-7.381 157.611-22.741 60.16-62.507 112.555-92.8 148.608-33.963 42.88-67.243 83.499-66.603 143.744 1.152 91.819 10.112 261.675-151.211 261.931zM556.032 814.72h0.555c9.088 0 16.896-2.645 24.917-8.448 8.149-5.76 14.080-14.165 18.731-22.741 4.48-11.051 6.741-19.584 7.083-30.891 0 0.853 0.256 1.707 0.256 2.517v-4.437c-0.085 0.299-0.171 0.64-0.171 0.896l-0.171 1.024c-0.085-10.368-2.261-20.608-6.4-30.123-2.005-5.333-5.077-10.24-9.088-14.293-1.237 0.683-2.432 1.28-3.755 1.792-4.48 1.92-8.491 2.731-12.16 5.675-3.029 1.195-6.187 2.176-9.344 2.816 2.091 2.517 6.187 5.675 7.765 8.448 2.261 5.461 3.499 11.264 3.755 17.152v0.811c0.085 5.76-0.768 11.563-2.603 17.067-1.92 5.76-4.309 8.576-7.808 14.251-3.584 2.816-7.125 5.632-11.392 5.632h-0.683c-3.968 0-7.509-1.28-11.179-5.632-4.053-4.011-7.083-8.832-8.747-14.251-2.261-5.419-3.584-11.264-3.84-17.067v-0.811c0.085-3.797 0.341-7.637 0.853-11.392-8.235 2.859-18.688 5.76-25.899 8.619-0.427 2.773-0.683 5.632-0.768 8.491v0.853c-0.341 11.264 1.835 22.443 6.4 32.811 3.499 9.344 9.899 17.323 18.347 22.741 7.296 5.504 16.171 8.491 25.344 8.491zM429.653 812.203h1.536c6.059 0 11.52-2.048 17.024-5.76 6.229-5.504 11.264-12.288 14.677-19.84 3.84-8.491 6.016-17.109 6.528-28.459v-0.171c0.299-5.717 0.256-8.576-0.085-11.349v-3.413c-1.28-0.299-2.389-0.768-3.541-1.024-6.485-2.347-11.691-5.76-16.768-8.533 0.512 3.797 0.555 7.637 0.128 11.392v0.64c-0.512 5.675-1.664 8.491-3.499 14.208-1.323 4.352-3.755 8.235-7.083 11.392-2.091 1.92-4.907 2.901-7.808 2.731h-0.896c-3.029-0.256-5.547-1.749-7.936-5.632-2.731-3.285-4.48-7.296-5.12-11.52-1.152-4.608-1.493-9.344-0.981-14.123v-0.597c0.512-5.76 1.579-8.576 3.456-14.251 1.92-5.717 4.139-8.533 7.040-11.435 0.469-0.384 0.896-0.768 1.451-1.024-2.987-2.432-4.992-2.987-7.509-5.803-1.579-1.195-3.413-2.56-5.589-2.901-4.437 5.333-8.363 11.093-11.733 17.152-4.096 8.96-6.229 18.688-6.613 28.459-0.725 9.643 0.469 19.285 3.413 28.501 2.347 8.405 6.485 16.171 12.075 22.827 5.461 5.675 11.093 8.533 17.835 8.533zM488.149 739.413c14.123 0 31.232-2.773 51.84-17.024 12.501-8.533 22.315-11.477 44.928-19.968h0.128c10.88-5.803 17.28-11.349 20.395-17.024v5.589c3.115-6.272 3.328-13.568 0.683-20.053-5.248-13.269-22.016-27.477-45.397-35.968v-0.085c-11.435-5.76-21.376-14.208-33.067-19.84-11.776-5.76-25.088-12.459-43.179-11.392-6.485-0.341-13.013 0.64-19.115 2.859-4.693 2.56-9.301 5.376-13.739 8.448-8.32 5.76-15.488 14.165-26.112 19.84v0.213h-0.213c-17.067 10.496-26.283 21.845-29.269 30.336-2.944 11.435-0.213 20.011 8.235 25.6 9.557 5.76 16.213 11.563 20.608 14.336 4.437 3.157 6.101 4.352 7.509 5.589h0.085v0.128c7.211 8.619 18.603 20.011 35.797 25.643 5.931 1.536 12.544 2.773 19.883 2.773zM607.573 647.979c15.317-60.459 51.072-148.267 74.069-190.848 12.203-22.784 36.48-70.784 47.019-129.024 6.656 0.213 14.037-0.768 21.888-2.731 27.563 71.296-23.296 147.925-46.464 169.216-9.429 8.576-9.899 14.293-5.248 14.293 25.131-22.784 58.24-67.072 70.229-117.632 5.504-22.827 6.784-47.104 0.896-71.253 2.859-1.195 5.76-2.603 8.747-2.859 44.032-22.784 60.288-40.021 52.48-65.579v1.835c-2.603 0.128-5.12 0-7.723 0h-0.64c6.443 19.925-7.765 35.2-45.44 52.224-39.040 17.067-70.229 14.336-75.563-19.84-0.299-1.835-0.512-2.816-0.725-5.76-2.901-0.981-5.931-2.261-8.917-2.731-18.347-11.435-28.245-28.544-33.835-50.645-5.547-22.741-7.253-49.323-8.747-79.744v-0.128c-0.896-14.251-7.296-35.755-13.611-57.643-64-45.739-152.747-65.621-228.224-14.251-4.736 8.235-10.496 15.957-17.152 22.741-3.157 5.333-7.168 10.112-11.733 14.251 7.765 0 14.421 1.237 19.84 2.859 6.187 2.859 10.965 8.021 13.397 14.251 4.608 11.392 0 29.739-14.72 49.621-14.72 19.925-39.723 42.453-76.288 64.896-26.88 17.024-42.069 37.12-49.067 59.563-7.040 22.784-6.101 46.293-0.64 70.187 10.453 45.653 37.248 90.027 54.357 117.888 4.565 2.773 1.579-5.76-17.408-41.557-16.896-32.043-48.683-106.539-5.205-164.437 1.621 42.197 11.008 83.84 27.605 122.709 24.064 54.528 74.368 149.504 78.336 224.768 2.048-1.536 9.259-5.76 12.331-8.619 9.301-5.675 16.213-14.208 25.173-19.84 9.003-8.576 20.352-14.293 37.376-14.293 1.664-0.128 3.2-0.256 4.736-0.256 17.536 0 31.104 5.717 42.496 11.435 12.373 5.717 22.229 14.251 31.573 17.067h0.213c19.925 5.76 35.669 17.152 44.587 29.867zM700.843 265.771c1.579-25.643 14.635-53.12 37.632-58.752 25.088-5.717 61.184 14.208 76.416 32.64l9.003 0.384c13.44 0.341 24.619-0.427 36.139-11.392l0.128-0.128c8.875-8.491 13.013-22.656 16.683-37.376 3.627-17.109 6.571-33.28 17.451-45.483 20.736-22.485 27.52-38.656 27.136-48.64l0.128 0.256v-0.768l-0.128 0.512c-0.64-11.179-7.893-16.896-21.248-25.387-26.88-17.109-74.496-30.379-104.832-66.987-26.368-31.445-58.496-48.597-86.869-50.816-28.331-2.261-52.779 8.533-67.157 38.315l-0.213 0.128c-8.96 17.109-5.12 43.733 2.389 72.107 7.509 28.501 18.261 57.387 19.755 80.981 1.579 30.464 3.243 56.96 8.32 77.397 5.12 19.84 13.141 34.005 27.349 41.984l1.92 0.939zM239.403 263.68h0.427c2.261 0 4.48-0.213 6.699-0.597 16.043-2.347 30.123-14.208 43.648-32.085l38.827-70.997 0.128-0.128c10.368-22.741 32.171-45.397 50.731-69.888 18.517-25.515 32.853-48.256 31.104-66.987v-0.256c-2.432-31.744-20.437-48.981-48-55.211-27.52-5.76-64.853-0.085-102.187 19.797-41.301 22.869-90.368 20.011-121.899 25.685-15.744 2.816-26.069 8.576-30.848 17.109-4.736 8.491-4.821 25.643 5.248 52.48v0.128l0.085 0.128c4.992 14.251 1.28 32.128-1.152 47.744-2.347 17.109-3.541 30.251 1.835 40.107 6.827 14.251 16.896 17.024 29.397 22.741 12.587 5.76 27.349 8.619 39.083 20.011h0.085v0.128c10.923 11.435 18.987 25.643 28.501 35.755 8.107 8.576 16.213 14.336 28.288 14.336zM544.853 650.837c-18.56-8.576-40.32-22.827-63.488-22.827-23.125 0-41.387 11.392-54.571 19.883-6.613 5.717-11.947 11.435-15.957 14.293-6.997 5.717-6.144 14.251-3.157 14.251 4.651-0.683 5.504-5.76 8.491-8.576 4.096-2.816 9.173-8.491 15.403-14.208 12.416-8.533 29.013-19.925 49.749-19.925 20.693 0 44.928 11.392 59.648 19.883 8.32 5.76 18.987 14.251 27.648 19.925 6.656 5.845 6.357 11.435 11.904 11.435 5.504-0.683 1.451-5.717-6.272-14.208-7.723-5.76-19.669-14.293-29.44-19.968v0.043zM498.688 718.421v0.939c-0.256 0.811 0.555 1.792 1.237 2.133 3.157 1.835 7.68 1.152 11.093-0.171 2.688 0 6.827-2.859 6.4-5.76-0.256-2.091-3.627-2.816-5.76-2.816-2.347 0-3.925 1.835-6.016 2.901-2.219 0.768-6.229 0.341-6.955 2.773zM475.179 718.421c-0.853-2.475-4.821-2.091-7.083-2.816-2.005-1.067-3.669-2.901-5.931-2.901-2.176 0-5.589 0.811-5.845 2.901-0.384 2.816 3.755 5.675 6.4 5.675 3.456 1.323 7.851 2.005 11.051 0.213 0.811-0.384 1.536-1.28 1.28-2.133v-0.896h0.128z" />
<glyph unicode="&#xe937;" glyph-name="foursquare" data-tags="foursquare" d="M756.352 812.16l-22.827-119.424c-2.731-12.928-18.987-26.581-34.176-26.581h-212.523c-23.979 0-41.088-16.683-41.088-40.32v-26.197c0-24.277 17.28-40.96 41.216-40.96h180.48c16.853 0 33.493-18.603 29.739-36.48l-22.827-117.76c-2.176-10.24-13.397-26.88-33.493-26.88h-147.499c-26.88 0-34.901-3.883-52.864-25.643-17.92-22.357-179.456-216.277-179.456-216.277-1.579-1.92-3.157-1.237-3.157 0.64v677.803c0 15.317 13.269 33.28 33.109 33.28h438.357c16 0 31.147-15.189 27.008-35.029v-0.171zM775.595 343.68c6.187 24.661 74.496 374.784 97.323 485.76zM788.736 960h-546.261c-75.307 0-97.408-56.661-97.408-92.331v-867.84c0-40.107 21.504-55.083 33.664-59.947 12.117-4.992 45.611-9.131 65.749 13.995 0 0 257.877 299.264 262.229 303.659 7.040 6.699 7.040 6.699 13.44 6.699h166.997c70.4 0 81.323 49.92 89.003 79.36 6.4 24.277 74.837 374.357 97.237 485.76 17.28 84.565-4.48 130.645-84.48 130.645h-0.171z" />
<glyph unicode="&#xe938;" glyph-name="linewebtoon" data-tags="linewebtoon" d="M640.981 308.907c29.653 0 43.264 17.237 43.264 44.843 0 23.509-13.141 43.093-41.984 43.093-24.747 0-38.912-17.237-38.912-43.349 0-23.168 13.653-44.587 37.632-44.587zM432.427 300.928c32.597 0 47.488 18.901 47.488 49.237 0 25.771-14.421 47.317-46.165 47.317-27.179 0-42.752-18.987-42.752-47.573 0-25.472 15.019-48.981 41.429-48.981zM1024 524.757l-134.4-1.237 35.413 413.269-841.472-130.603 71.936-266.581h-155.477l159.317-490.155 371.755 54.741v-144.896l431.488 198.016 61.44 367.445zM635.563 678.101c0 2.091 1.664 3.925 3.755 4.011l99.2 6.571c22.357 1.493 69.717-2.688 69.717-52.736 0-35.413-26.411-50.517-26.411-50.517s32-8.064 30.165-46.592c0-68.352-82.901-59.264-82.901-59.264l-91.008 2.517c-2.042 0.071-3.67 1.743-3.67 3.795 0 0.016 0 0.031 0 0.047v-0.002l1.152 192.171zM478.763 667.733c0 2.005 1.664 3.84 3.755 3.925l130.731 8.661c0.089 0.008 0.194 0.013 0.299 0.013 1.885 0 3.413-1.528 3.413-3.413 0-0.005 0-0.009 0-0.014v0.001-40.235c0-2.091-1.664-3.84-3.712-3.925l-81.067-3.413c-2.047-0.133-3.669-1.784-3.754-3.832v-0.008l-0.213-16.811c0-0.013 0-0.029 0-0.045 0-1.956 1.586-3.541 3.541-3.541 0.045 0 0.090 0.001 0.135 0.003h-0.006l70.229 2.816c0.051 0.003 0.111 0.004 0.172 0.004 1.932 0 3.499-1.566 3.499-3.499 0-0.031 0-0.063-0.001-0.094v0.005l-0.853-43.179c-0.071-2.041-1.743-3.669-3.795-3.669-0.001 0-0.002 0-0.002 0h-69.547c-2.064-0.024-3.731-1.691-3.755-3.752v-17.751c0-2.005 1.664-3.755 3.755-3.755l79.787-1.408c2.065-0.071 3.712-1.762 3.712-3.838 0-0.001 0-0.001 0-0.002v0-40.576c0-0.001 0-0.001 0-0.002 0-1.979-1.605-3.584-3.584-3.584-0.045 0-0.090 0.001-0.134 0.002h0.006l-130.688 5.248c-2.065 0.071-3.712 1.762-3.712 3.838 0 0.001 0 0.001 0 0.002v0l1.792 175.829zM222.336 654.421l41.6 2.731c0.079 0.005 0.171 0.008 0.263 0.008 2.066 0 3.792-1.453 4.212-3.393l0.005-0.028 19.541-94.080c0.427-2.005 1.152-2.005 1.664 0l24.576 97.323c0.678 2.040 2.436 3.541 4.579 3.837l0.029 0.003 39.296 2.603c0.066 0.003 0.144 0.005 0.222 0.005 2.091 0 3.856-1.393 4.42-3.301l0.008-0.033 24.064-99.925c0.512-2.005 1.237-2.005 1.749 0l25.6 103.424c0.642 2.081 2.412 3.623 4.579 3.922l0.029 0.003 42.496 2.731c2.048 0.171 3.285-1.323 2.773-3.328l-46.507-175.104c-0.595-2.036-2.445-3.499-4.636-3.499-0.005 0-0.010 0-0.015 0h0.001l-47.829 1.323c-2.205 0.116-4.032 1.611-4.641 3.633l-0.009 0.036-22.827 83.84c-0.512 2.005-1.408 2.005-1.92 0l-22.272-82.517c-0.681-2-2.512-3.427-4.685-3.498h-0.008l-47.317 1.323c-2.193 0.185-3.99 1.694-4.598 3.718l-0.010 0.037-37.248 154.368c-0.469 2.005 0.811 3.755 2.816 3.84zM210.048 243.84v151.936c-0.023 2.049-1.666 3.707-3.708 3.755h-0.004l-53.419 1.237c-2.093 0.088-3.771 1.751-3.882 3.83v0.010l-1.963 48c-0.003 0.051-0.004 0.111-0.004 0.171 0 1.932 1.566 3.499 3.499 3.499 0.016 0 0.033 0 0.049 0h-0.002l172.672-4.096c2.048 0 3.712-1.749 3.627-3.755l-0.939-46.421c-0.111-2.042-1.751-3.667-3.789-3.754h-0.008l-48.597-0.171c-2.036-0.070-3.666-1.714-3.712-3.75v-147.076c0-2.091-1.664-3.84-3.712-3.925l-52.352-2.987c-0.103-0.011-0.222-0.017-0.343-0.017-1.885 0-3.413 1.528-3.413 3.413 0 0.036 0.001 0.072 0.002 0.108v-0.005zM330.965 345.344c0 81.835 56.363 105.899 103.083 105.899s99.797-31.147 99.797-98.816c0-81.067-59.008-105.899-103.083-105.899-44.075-0.043-99.797 30.891-99.797 98.816zM550.229 350.251c0 74.496 49.749 95.488 92.245 95.488s90.837-28.331 90.837-89.899c0-73.771-53.717-96.427-93.781-96.427s-89.301 29.013-89.301 90.837zM859.947 277.248c-0.047-0.001-0.102-0.002-0.157-0.002-2.321 0-4.394 1.059-5.764 2.72l-0.010 0.013-50.645 69.589c-1.237 1.664-2.261 1.323-2.261-0.768v-71.253c0-2.005-1.664-3.84-3.669-3.925l-44.885-2.603c-0.064-0.004-0.138-0.007-0.213-0.007-1.932 0-3.499 1.566-3.499 3.499 0 0.002 0 0.005 0 0.007v0l1.664 163.925c0 2.005 1.664 3.669 3.755 3.584l37.589-0.853c2.374-0.234 4.435-1.408 5.833-3.141l0.013-0.016 55.168-81.152c1.152-1.749 2.176-1.408 2.176 0.597l1.365 78.763c0.024 2.032 1.676 3.67 3.712 3.67 0.030 0 0.060 0 0.090-0.001h-0.004l41.088-1.237c2.005 0 3.627-1.749 3.541-3.84l-5.888-151.68c-0.108-2.108-1.779-3.794-3.871-3.925l-0.012-0.001-35.115-1.963zM693.675 608.853l30.891 0.597s20.053-0.768 20.053 18.517c0 15.232-17.536 14.080-17.536 14.080l-33.365-0.341c-2.055-0.047-3.708-1.7-3.755-3.75v-25.519c0-0.014 0-0.030 0-0.047 0-1.956 1.586-3.541 3.541-3.541 0.060 0 0.12 0.001 0.179 0.004h-0.008zM692.437 525.184h42.24c1.024 0 14.933 2.176 14.933 17.237 0 12.501-9.771 17.152-18.816 16.981l-38.315-1.237c-2.060-0.048-3.712-1.729-3.712-3.796 0-0.015 0-0.031 0-0.046v0.002-25.429c0-0.013 0-0.028 0-0.043 0-2.027 1.643-3.669 3.669-3.669 0 0 0 0 0 0v0z" />
<glyph unicode="&#xe939;" glyph-name="drupal" data-tags="drupal" d="M872.533 808.448c-93.525 97.92-222.592 151.296-360.533 151.296-280.277 0-511.701-231.339-511.701-511.744s231.381-511.744 511.701-511.744 511.787 231.339 511.787 511.744c0 137.941-53.376 267.008-151.296 360.448zM512 114.261c-155.733 0-280.32 124.587-280.32 280.32 0 129.067 88.96 218.069 164.608 293.717 53.419 53.419 102.4 102.4 115.712 160.213 13.355-53.419 62.293-102.357 115.712-155.733 75.648-75.691 164.651-164.693 164.651-293.717 0-155.733-124.587-280.363-280.363-284.8z" />
<glyph unicode="&#xe93a;" glyph-name="sega" data-tags="sega" d="M905.771 783.36l-0.256-142.080h-452.267c-9.344 0-16.939-7.723-16.939-17.024 0-9.429 7.68-17.024 16.939-17.024l117.76 0.683c185.429 0 335.701-150.4 335.701-335.744 0-185.515-150.272-335.744-335.744-335.744l-453.717-0.427 0.213 144h453.76c106.112 0 192.171 86.016 192.171 192.171 0 106.24-86.059 192.256-192.256 192.256l-118.229 1.28c-87.893 0-159.019 71.083-159.019 158.72 0 87.936 71.083 158.976 158.848 158.976h453.035zM117.888 113.365l-0.171 142.123h452.651c8.96 0 16.341 7.467 16.341 16.512 0 9.088-7.381 16.427-16.384 16.427h-117.077c-185.387 0-335.659 150.4-335.659 335.829s150.272 335.744 335.659 335.744l452.267-0.128 0.256-142.933-452.437-0.128c-106.24 0-192-86.144-192-192.299 0-106.197 86.357-192.171 192.64-192.171l118.4-1.28c87.68 0 158.72-71.168 158.72-158.891 0-87.68-71.040-158.677-158.72-158.677l-454.485-0.128z" />
<glyph unicode="&#xe93b;" glyph-name="gmail" data-tags="gmail" d="M1024 768v-640c0-36.267-27.733-64-64-64h-64v580.821l-384-275.755-384 275.755v-580.821h-64c-36.309 0-64 27.733-64 64v640c0 18.133 6.912 34.133 18.389 45.568 11.477 11.605 27.52 18.432 45.611 18.432h21.333l426.667-309.333 426.667 309.333h21.333c18.133 0 34.133-6.912 45.611-18.432 11.52-11.435 18.389-27.435 18.389-45.568z" />
<glyph unicode="&#xe93c;" glyph-name="googlepay" data-tags="googlepay" d="M1024 533.333l-133.717-298.667h-41.301l49.621 104.533-87.936 194.133h43.52l63.573-148.907h0.853l61.781 148.907zM468.608 440.917v-120.917h-41.941v298.667h111.232c0.785 0.021 1.708 0.033 2.635 0.033 26.587 0 50.883-9.805 69.471-25.997l-0.127 0.108c19.541-16.085 30.507-39.040 30.123-63.061 0.004-0.289 0.006-0.63 0.006-0.972 0-25.201-11.702-47.668-29.969-62.265l-0.159-0.123c-19.413-16.981-43.435-25.429-71.979-25.429h-69.291zM468.523 581.888v-104.277h70.315c15.573-0.427 30.635 5.205 41.515 15.445 10.752 9.6 16.853 22.741 16.853 36.523 0 13.739-6.101 26.88-16.853 36.48-10.267 9.819-24.216 15.862-39.576 15.862-0.682 0-1.361-0.012-2.037-0.036l0.098 0.003h-70.315zM724.139 533.333c26.752 0 47.872-7.424 63.36-22.272 15.445-14.848 23.168-35.243 23.168-61.099v-123.435h-34.603v27.819h-1.579c-14.976-22.912-34.901-34.347-59.733-34.347-21.248 0-38.997 6.528-53.333 19.627-13.175 11.724-21.434 28.727-21.434 47.659 0 0.495 0.006 0.989 0.017 1.481l-0.001-0.073c0 20.693 7.552 37.163 22.613 49.408s35.2 18.347 60.373 18.389c21.461 0 39.168-4.096 53.035-12.245v8.576c0.002 0.138 0.002 0.3 0.002 0.463 0 13.071-5.762 24.796-14.885 32.773l-0.051 0.043c-8.966 8.508-21.112 13.74-34.481 13.74-0.148 0-0.296-0.001-0.443-0.002h0.023c-20.224 0-36.224-8.875-47.957-26.581l-31.872 20.821c17.493 26.155 43.435 39.253 77.781 39.253zM677.333 387.84c-0.001-0.089-0.001-0.193-0.001-0.298 0-9.859 4.69-18.622 11.96-24.181l0.073-0.054c7.979-6.528 17.92-9.984 28.117-9.813 15.232 0.043 29.867 6.4 40.661 17.579 11.087 10.245 18.006 24.861 18.006 41.092 0 0.058 0 0.117 0 0.175v-0.009c-11.307 9.387-27.008 14.037-47.189 14.037-14.72 0-26.965-3.712-36.779-11.093-9.899-7.424-14.848-16.512-14.848-27.435zM174.123 618.667c0.637 0.009 1.389 0.014 2.143 0.014 44.14 0 84.332-16.9 114.46-44.583l-0.122 0.111-49.664-48.725c-17.016 15.872-39.928 25.615-65.116 25.615-0.598 0-1.194-0.005-1.789-0.016l0.089 0.001c-45.144-0.282-83.437-29.3-97.528-69.671l-0.222-0.729c-3.469-9.741-5.474-20.978-5.474-32.683s2.005-22.941 5.69-33.385l-0.216 0.702c14.312-41.1 52.606-70.118 97.715-70.4h0.034c23.509 0 43.648 5.888 59.307 16.256 18.304 11.947 30.848 30.72 34.731 51.925h-94.037v65.707h164.224c2.005-11.477 2.987-23.040 2.987-34.688 0-51.925-18.944-95.872-51.797-125.568-28.843-26.112-68.437-41.216-115.413-41.216-0.213-0.001-0.464-0.001-0.716-0.001-66.972 0-125.133 37.727-154.389 93.089l-0.458 0.95c-11.684 22.267-18.539 48.648-18.539 76.629s6.856 54.362 18.979 77.554l-0.44-0.924c29.713 56.311 87.874 94.039 154.847 94.039 0.237 0 0.473 0 0.71-0.001h-0.037z" />
<glyph unicode="&#xe93d;" glyph-name="android" data-tags="android" d="M944.896 566.315c0 34.773-28.075 63.061-62.976 63.061s-63.147-28.16-63.147-63.147v-264.107c0-34.56 28.288-63.147 63.275-63.147 34.731 0 62.976 28.587 62.976 63.147v264.533h-0.427zM230.101 617.301l0.171-409.6c0-37.76 30.037-67.84 67.115-67.84h45.355v-139.947c0-34.987 28.16-63.232 62.72-63.232s62.592 28.16 63.147 62.635v139.947h85.035v-139.947c0-35.115 28.16-63.275 62.72-63.275 35.115 0 63.232 28.16 63.232 63.573v139.947h45.995c37.12 0 67.115 30.293 67.115 67.328v410.88l-562.731-0.469zM641.749 742.315c-13.227 0-23.893 10.667-23.893 23.893 0 13.013 10.667 23.808 23.893 23.893 13.227 0 23.893-10.88 23.893-23.893 0-13.227-10.667-23.893-23.893-23.893zM383.189 742.315c-13.227 0-23.893 10.667-23.893 23.893 0 13.099 10.667 23.808 23.893 23.808s23.893-10.88 23.893-24.32-10.752-24.192-24.32-24.192zM651.136 865.237l43.904 80.683c2.56 4.48 0.597 9.643-3.243 12.16-4.437 1.92-9.557 0.64-12.117-3.84l-44.8-81.067c-37.035 17.28-79.189 26.88-123.307 26.88s-86.101-9.173-123.392-25.728l-44.117 81.195c-2.261 4.181-7.68 5.76-11.861 3.413-4.267-1.92-5.803-7.68-3.413-11.52l43.947-80c-86.613-44.672-145.067-129.707-145.067-227.413h568.661c0 97.707-58.368 182.741-144.896 227.413zM142.080 629.675c-34.859 0-63.147-28.373-63.147-63.275v-264.192c0-34.987 28.331-63.147 63.317-63.147 34.731 0 63.019 28.16 63.019 63.147v264.107c0 34.773-28.16 63.061-62.72 63.061z" />
<glyph unicode="&#xe93e;" glyph-name="adobe" data-tags="adobe" d="M644.267 874.667h379.733v-853.333l-379.733 853.333zM379.733 874.667h-379.733v-853.333l379.733 853.333zM512 558.933l238.933-537.6h-162.133l-68.267 170.667h-174.933l166.4 366.933z" />
<glyph unicode="&#xe93f;" glyph-name="ethereum" data-tags="ethereum" d="M509.611 193.28l-314.197 185.6 314.155-442.88 314.453 442.88-314.411-185.6zM514.389 960l-314.283-521.515 314.24-185.771 314.24 185.6-314.197 521.685z" />
</font>
</defs>
</svg>
